Quick Browse
Movies
TV shows
Music
Games
Applications
Anime
Other
Facebook
Advertising

Friends
Torrent Download
Movie4u
1337x.to
Torrent Downloads




Verified torrent Madonna [Sticky And Sweet Tour - Buenos Aires - DVD]


    Seeders : 0      Leechers : 3

Trackers List

Tracker NameLast CheckStatusSeedersLeechers




Torrent File Content (16 files)


Madonna (Sticky And Sweet Tour - Buenos Aires - DVD)
    Madonna [Sticky And Sweet Tour - Buenos Aires - DVD]
          Madonna [Sticky And Sweet Tour - Buenos Aires - DVD]/VIDEO_TS/VIDEO_TS.BUP -
12 KB

          Madonna [Sticky And Sweet Tour - Buenos Aires - DVD]/VIDEO_TS/VIDEO_TS.IFO -
12 KB

          Madonna [Sticky And Sweet Tour - Buenos Aires - DVD]/VIDEO_TS/VIDEO_TS.VOB -
58 KB

          Madonna [Sticky And Sweet Tour - Buenos Aires - DVD]/VIDEO_TS/VTS_01_0.BUP -
82 KB

          Madonna [Sticky And Sweet Tour - Buenos Aires - DVD]/VIDEO_TS/VTS_01_0.IFO -
82 KB

          Madonna [Sticky And Sweet Tour - Buenos Aires - DVD]/VIDEO_TS/VTS_01_0.VOB -
58 KB

          Madonna [Sticky And Sweet Tour - Buenos Aires - DVD]/VIDEO_TS/VTS_01_1.VOB -
1023.97 MB

          Madonna [Sticky And Sweet Tour - Buenos Aires - DVD]/VIDEO_TS/VTS_01_2.VOB -
1023.97 MB

          Madonna [Sticky And Sweet Tour - Buenos Aires - DVD]/VIDEO_TS/VTS_01_3.VOB -
1023.97 MB

          Madonna [Sticky And Sweet Tour - Buenos Aires - DVD]/VIDEO_TS/VTS_01_4.VOB -
1023.97 MB

          Madonna [Sticky And Sweet Tour - Buenos Aires - DVD]/VIDEO_TS/VTS_01_5.VOB -
84.7 MB

          Madonna [Sticky And Sweet Tour - Buenos Aires - DVD] Covers/Madonna [Sticky And Sweet Tour - Buenos Aires - DVD] Disc.jpg -
191.45 KB

          Madonna [Sticky And Sweet Tour - Buenos Aires - DVD] Covers/Madonna [Sticky And Sweet Tour - Buenos Aires - DVD] DVD Cover.jpg -
463.31 KB

     Madonna [Sticky And Sweet Tour - Buenos Aires - DVD].NFO -
4.96 KB

     Other Materail Of Madonna.txt -
1.63 KB

     Torrent downloaded from AhaShare.com.txt -
59 bytes



Description



===============================================================================================
MOVIE TITLE: Madonna [Sticky And Sweet Tour - Buenos Aires - DVD]
LANGUAGE: English
MOVIE SUBS: No - (subtitles if/when required)
===============================================================================================
MOVIE DESC:

Without doubt the most exciting and well produced concert documentary ever. Madonna's performances are the best of her career,
and the excitement of the passionate Latin-American crowds is palpable. The inclusion of major Latin-American elements woven
through the concert is a triumph, especially for the audience at these concerts.

As always, Madonna gives her audience much more than they expect, and a relentless torrent of energy is on stage throughout the
whole concert. Brilliantly conceived technical and artistic design, choreography and musical performances are testament to Madonna's
immensely perfectionist vision. The doco gives a taste of how amazing these shows would have been live.
===============================================================================================
MOVIE SPECS:

GENERAL:
Complete name : Madonna [Sticky And Sweet Tour - Buenos Aires - DVD]
Format : MPEG-PS
File size : 4.08 GB
Duration : 126 Minutes
Overall bit rate : 4 675 Kbps

VIDEO:
ID : 224 (0xE0)
Format : MPEG Video
Format version : Version 2
Format profile : [email protected]
Format settings, BVOP : Yes
Format settings, Matrix : Default
Duration : 126 Minutes
Bit rate mode : Variable
Bit rate : 4 390 Kbps
Nominal bit rate : 9 608 Kbps
Width : 720 pixels
Height : 576 pixels
Display aspect ratio : 16:9
Frame rate : 25.000 fps
Standard : PAL
Color space : YUV
Chroma subsampling : 4:2:0
Bit depth : 8 bits
Scan type : Progressive
Bits/(Pixel*Frame) : 0.423
Stream size : 962 MiB (94%)

AUDIO
ID : 128 (0x80)
Format : AC-3
Format/Info : Audio Coding 3
Mode extension : CM (complete main)
Duration : 126 Minutes
Bit rate mode : Constant
Bit rate : 192 Kbps
Channel(s) : 2 channels
Channel positions : Front: L R
Sampling rate : 48.0 KHz
Stream size : 42.0 MiB (4%)
===============================================================================================

Related torrents

Torrent NameAddedSizeSeedLeechHealth
1 Year+ - in Movies3.7 GB00
1 Year+ - in Other2.63 GB00
1 Year+ - in Movies8.73 GB00
1 Year+ - in Music220.51 MB016
1 Year+ - in Movies2.88 GB72115

Comments (0 Comments)




Please login or create a FREE account to post comments

Latest Searches

| Native Instruments Massive Standalone VSTi RTAS 1 3 0 | stepmom 01 | Perfect Boobs Flashed in Public Nicole Love | big butts round ass | Sandra Luberc pissing slut 3on1 DP | See y can I | beyond a reasonable doubt 2009 1080p bluray h264 aac rarbg | Once upon a time season 2 e01 | the magnificent seven 2160p | songs of 1957 |