Quick Browse
Movies
TV shows
Music
Games
Applications
Anime
Other
Facebook
Advertising

Friends
Torrent Download
Movie4u
1337x.to
Torrent Downloads




Verified torrent Madonna [The Confessions Tour - London - DVD]


    Seeders : 0      Leechers : 0
Hash :1C44B0F50B9DABD24AF3F1DDF9A374C2CEDE93B3
Added :1 Year+ by HannspreeVerified torrent uploader in Music - Music Videos
Size :3.08 GB
Stream :WATCH ONLINE @ Movie4u


Madonna [The Confessions Tour - London - DVD]
Free and Fast Download with Usenet 300GB+ free







Trackers List

Tracker NameLast CheckStatusSeedersLeechers
http://photodiode.mine.nu/announce1 Year+success00
udp://tracker.openbittorrent.com:80/announce1 Year+success00




Torrent File Content (15 files)


Madonna (The Confessions Tour - London - DVD)
    Madonna [The Confessions Tour - London - DVD]
          VIDEO_TS/VIDEO_TS.BUP -
12 KB

          VIDEO_TS/VIDEO_TS.IFO -
12 KB

          VIDEO_TS/VIDEO_TS.VOB -
58 KB

          VIDEO_TS/VTS_01_0.BUP -
64 KB

          VIDEO_TS/VTS_01_0.IFO -
64 KB

          VIDEO_TS/VTS_01_0.VOB -
58 KB

          VIDEO_TS/VTS_01_1.VOB -
1023.97 MB

          VIDEO_TS/VTS_01_2.VOB -
1023.97 MB

          VIDEO_TS/VTS_01_3.VOB -
1023.97 MB

          VIDEO_TS/VTS_01_4.VOB -
77.25 MB

          Madonna [The Confessions Tour - London - DVD] Covers/Madonna [The Confessions Tour - London - DVD] Cover.jpg -
467.05 KB

          Madonna [The Confessions Tour - London - DVD] Covers/Madonna [The Confessions Tour - London - DVD] Disc.jpg -
301.11 KB

     Madonna [The Confessions Tour - London - DVD].NFO -
5.66 KB

     Other Materail Of Madonna.txt -
1.63 KB

     Torrent downloaded from AhaShare.com.txt -
59 bytes



Description



===============================================================================================
MOVIE TITLE: Madonna [The Confessions Tour - London - DVD]
LANGUAGE: English
MOVIE SUBS: No - (subtitles if/when required)
===============================================================================================
MOVIE DESC:

Madonna has been rocking the boat for over 20 years, and with that comes a lot of experience -obviously- and a lot of
knowledge. She was never the one to think about yesterday, au contraire, she seemed to know what is going to be
popular tomorrow. She bravely takes all the new trends, technologies, and incorporates them into her own acts. Her
world tours have never been 'average'.

When Madonna performs, she gives 120% everything is bigger, better, theatrical and meaningful. She takes inspirations
from East, West, and makes then unique. Everything is given a deeper meaning, and The Confessions Tour is not different.
From the very beginning, you find yourself sitting on the edge of the chair. She starts with bang, then she does brave
circus poses on a horse high up in the sky, she does everything she can to entertain you. She remakes her own songs,
giving them a modern feel.

She sings on a disco cross, she almost comes in the middle of the stage, and with her amazing dance crew that know
no dimensions of fear, the show is absolutely more than you bargained for. It's a spectacle, an audio-visual orgasm
that cannot be put in words. Lucky are the ones who actually experienced seeing Madonna on stage. Pushing fifty, she
is still in an incredible form. Recent Sticky and Sweet Tour is even more ground-breaking, which proves nothing else,
that Madonna was, is, and ever be the one and the only queen of pop.
===============================================================================================
MOVIE SPECS:

General
Complete name : Madonna [The Confessions Tour - London - DVD]
Format : MPEG-PS
File size : 3.07 GB
Duration : 90 Minutes
Overall bit rate : 3 824 Kbps

Video
ID : 224 (0xE0)
Format : MPEG Video
Format version : Version 2
Format profile : [email protected]
Format settings, BVOP : Yes
Format settings, Matrix : Default
Duration : 90 Minutes
Bit rate mode : Variable
Bit rate : 3 556 Kbps
Nominal bit rate : 9 608 Kbps
Width : 720 pixels
Height : 576 pixels
Display aspect ratio : 4:3
Frame rate : 25.000 fps
Standard : PAL
Color space : YUV
Chroma subsampling : 4:2:0
Bit depth : 8 bits
Scan type : Progressive
Bits/(Pixel*Frame) : 0.343
Stream size : 952 MiB (93%)

Audio
ID : 128 (0x80)
Format : AC-3
Format/Info : Audio Coding 3
Mode extension : CM (complete main)
Duration : 90 Minutes
Bit rate mode : Constant
Bit rate : 192 Kbps
Channel(s) : 2 channels
Channel positions : Front: L R
Sampling rate : 48.0 KHz
Stream size : 51.4 MiB (5%)
===============================================================================================

Related torrents

Torrent NameAddedSizeSeedLeechHealth
1 Year+ - in Music745.11 MB01
1 Year+ - in Music538.4 MB00
1 Year+ - in Music164.86 MB00
1 Year+ - in Movies1.77 GB123
1 Year+ - in Music108.9 MB00

Comments (0 Comments)




Please login or create a FREE account to post comments

Latest Searches

| cavs raptors nba | tiny pussy licked | Baby Got Boobs Skyla Novea amp JMac The Bra Collector | tl | q theory of a dead man | cards generator | new music Drake | tiny ass first | Yungen Project Black Red | Tengo Ganas De Ti Mejor Calidad Spanish |