Quick Browse
Movies
TV shows
Music
Games
Applications
Anime
Other
Facebook
Advertising

Friends
Torrent Download
Movie4u
1337x.to
Torrent Downloads




Madonna ft. Justin Timberlake & Timbo - 4 Minutes HD 720p Xclusive(RaHuL {tHe HuNk})[Silver RG]


    Seeders : 15      Leechers : 29

Trackers List

Tracker NameLast CheckStatusSeedersLeechers




Torrent File Content (13 files)


Madonna ft. Justin Timberlake & Timbo - 4 Minutes HD 720p(RaHuL {tHe HuNk})[Silver RG]
     Madonna ft. Justin Timberlake & Timbo - 4 Minutes HD 720p(RaHuL {tHe HuNk})[Silver RG].mp4 -
67.51 MB

     Madonna ft. Justin Timberlake Timbo - 4 Minutes To Save The World.mp4_snapshot_00.40_[2011.06.25_16.49.00].png -
655.54 KB

     Madonna ft. Justin Timberlake Timbo - 4 Minutes To Save The World.mp4_snapshot_00.42_[2011.06.25_16.49.37].png -
322.98 KB

     Madonna ft. Justin Timberlake Timbo - 4 Minutes To Save The World.mp4_snapshot_01.05_[2011.06.25_16.50.22].png -
304 KB

     Madonna ft. Justin Timberlake & Timbo - 4 Minutes HD 720p(RaHuL {tHe HuNk})[Silver RG]_s.jpg -
125.16 KB

     Info.txt -
6.34 KB

     Visit mE....for more uploads of mine.txt -
389 bytes

     tracked_by_h33t_com.txt -
193 bytes

     Torrent downloaded from AhaShare.com.txt -
59 bytes

     Torrent downloaded from Silvertorrents.me.txt -
53 bytes

     Torrent downloaded from Extratorrent.com.txt -
48 bytes

     Torrent Downloaded from Limetorrents.com.txt -
48 bytes

     Torrent downloaded from Demonoid.me.txt -
46 bytes



Description



http://img52.imageshack.us/img52/5677/rahulthehunkcase.png


[color=red]Description[/color]
http://i.min.us/iKxaa.gif

[color=violet]::General::[/color]
Complete name : Madonna ft. Justin Timberlake & Timbo - 4 Minutes HD 720p(RaHuL {tHe HuNk})[Silver RG]\Madonna ft. Justin Timberlake & Timbo - 4 Minutes HD 720p(RaHuL {tHe HuNk})[Silver RG].mp4
Format : MPEG-4
Format profile : Base Media
Codec ID : isom
File size : 67.5 MiB
Duration : 4mn 3s
Overall bit rate : 2 330 Kbps
Encoded date : UTC 2011-06-25 08:42:35
Tagged date : UTC 2011-06-25 08:42:35

http://i.min.us/iKM98.gif

[color=violet]::Video::[/color]
ID : 1
Format : AVC
Format/Info : Advanced Video Codec
Format profile : [email protected]
Format settings, CABAC : Yes
Format settings, ReFrames : 4 frames
Codec ID : avc1
Codec ID/Info : Advanced Video Coding
Duration : 4mn 2s
Bit rate mode : Variable
Bit rate : 2 120 Kbps
Maximum bit rate : 4 004 Kbps
Width : 1 280 pixels
Height : 720 pixels
Display aspect ratio : 16:9
Frame rate mode : Constant
Frame rate : 25.000 fps
Color space : YUV
Chroma subsampling : 4:2:0
Bit depth : 8 bits
Scan type : Progressive
Bits/(Pixel*Frame) : 0.092
Stream size : 63.0 MiB (93%)
Writing library : x264 core 114 r1913 5fd3dce
Encoding settings : cabac=1 / ref=3 / deblock=1:0:0 / analyse=0x3:0x133 / me=hex / subme=5 / psy=1 / psy_rd=0.00:0.00 / mixed_ref=0 / me_range=16 / chroma_me=1 / trellis=1 / 8x8dct=1 / cqm=0 / deadzone=21,11 / fast_pskip=1 / chroma_qp_offset=0 / threads=3 / sliced_threads=0 / nr=0 / decimate=1 / interlaced=0 / constrained_intra=0 / bframes=16 / b_pyramid=2 / b_adapt=1 / b_bias=0 / direct=1 / weightb=0 / open_gop=0 / weightp=2 / keyint=250 / keyint_min=25 / scenecut=40 / intra_refresh=0 / rc_lookahead=40 / rc=abr / mbtree=1 / bitrate=2120 / ratetol=1.0 / qcomp=0.60 / qpmin=0 / qpmax=69 / qpstep=4 / ip_ratio=1.40 / aq=1:1.00
Encoded date : UTC 2011-06-25 08:42:35
Tagged date : UTC 2011-06-25 08:42:37

http://i.min.us/iPrK2.gif

[color=violet]::Audio::[/color]
ID : 2
Format : AAC
Format/Info : Advanced Audio Codec
Format profile : LC
Codec ID : 40
Duration : 4mn 3s
Bit rate mode : Variable
Bit rate : 152 Kbps
Maximum bit rate : 165 Kbps
Channel(s) : 2 channels
Channel positions : Front: L R
Sampling rate : 44.1 KHz
Compression mode : Lossy
Stream size : 4.41 MiB (7%)
Encoded date : UTC 2011-06-25 08:42:37
Tagged date : UTC 2011-06-25 08:42:37


[color=violet]:: Trackers ::[/color]
http://inferno.demonoid.me:3393/announce

http://exodus.1337x.org/announce

http://10.rarbg.com/announce

http://tracker.publicbt.com/announce

http://genesis.1337x.org:1337/announce

http://9.rarbg.com:2710/announce

http://exodus.1337x.org:1337/announce

http://pow7.com/announce

http://tracker.publicbt.com:80/announce

http://tracker.publicbt.com/announce

http://nemesis.1337x.org/announce

http://i.min.us/iONUE.gif

http://img202.imageshack.us/img202/8650/madonnaftjustintimberla.jpg

http://img87.imageshack.us/img87/8109/madonnaftjustintimberla.png

http://img5.imageshack.us/img5/8109/madonnaftjustintimberla.png

http://img835.imageshack.us/img835/8109/madonnaftjustintimberla.png



[color=Red]::Greetz::[/color]
rahulthehunk with kkhan ,EMAD,MXMG,BigW,AliBaloch,AllSilverRGEncoders,TorrentStateRG,1337x,ExtraTorrent,H33t,and and all other P2P Releasers

[color=Red]::Note::[/color]
Make sure its real Silver RG Release From Silver RG Account


http://i.min.us/iKZEe.png

http://i.imgur.com/1mi0I.gif

http://i.min.us/ibeG78.gif


[color=red]For Promotional Use Only... Remember to support the artists...
Anyway enjoy the Music,it is free!!!!
[/color]



REQUESTED

Related torrents

Torrent NameAddedSizeSeedLeechHealth
Verified torrent
1 Year+ - in Music120.59 MB00
Verified torrent
1 Year+ - in Music54.91 MB1731
Verified torrent
1 Year+ - in Music50.77 MB187
Verified torrent
1 Year+ - in Music81.77 MB1511
Verified torrent
1 Year+ - in Music54.07 MB155

Comments (0 Comments)




Please login or create a FREE account to post comments

Latest Searches

| miss hevc | Stepmom Videos Vol 3 tara holiday penny pax 22 10 2015 Mylove mp4 | Mindwise by Nicholas Epley | 3ds eur contrast | 2011 christmas mastermix | Befikre 2016 DesiSCR 1CDRIP x264 AAC DDR | abby recall | Faith Hill when the lights go down | VA Sons Of Anarchy Songs Of Anarchy | SEELEY ESSENTIALS |