Quick Browse
Movies
TV shows
Music
Games
Applications
Anime
Other
Facebook
Advertising

Friends
Torrent Download
Movie4u
1337x.to
Torrent Downloads




Verified torrent Mahavishnu Orchestra - Apocalypse [Eac Flac Cue-TNTVillage]


    Seeders : 6      Leechers : 26
Hash :56D9996E942E16B38B19D25432E8C89184828A3D
Added :1 Year+ by submarcosVerified torrent uploader in Music - Music
Size :284.54 MB
Stream :WATCH ONLINE @ Movie4u


Mahavishnu Orchestra - Apocalypse [Eac Flac Cue-TNTVillage]
Free and Fast Download with Usenet 300GB+ free







Trackers List

Tracker NameLast CheckStatusSeedersLeechers




Torrent File Content (11 files)


Mahavishnu Orchestra (1974) - Apocalypse
     05 - Hymn to Him.flac -
107.84 MB

     02 - Vision is a Naked Sword.flac -
84.27 MB

     03 - Smile of the Beyond.flac -
40.39 MB

     04 - Wings of Karma.flac -
30.89 MB

     01 - Power of Love.flac -
18.92 MB

    cover
          front.jpg -
1.17 MB

          back.jpg -
776.26 KB

          cd.jpg -
299.55 KB

     Mahavishnu Orchestra - Apocalypse.log -
7.03 KB

     Apocalypse.cue -
980 bytes

     Mahavishnu Orchestra - Apocalypse.m3u -
140 bytes



Description



.: Original Release:.
http://www.tntvillage.scambioetico.org/?act=showrelease&id=267342

[::Cover::]

http://img696.imageshack.us/img696/8408/coverfgp.jpg


Artist: Mahavishnu Orchestra
Title: Apocalypse
Genre: Jazz-Rock
Year: 1974

[ :: Tracklist :: ]
1. Power Of Love [4:17]
2. Vision Is A Naked Sword [14:22]
3. Smile Of The Beyond [8:04]
4. Wings Of Karma [6:09]
5. Hymn To Him [19:22]

[ :: Technical Data :: ]
Encoder: EAC 1.02 b3 (Secure Mode,Test & Copy,AccurateRip)
Codec: Flac 1.2.1
Profile: 6


EAC LOG:

Exact Audio Copy V1.0 beta 2 from 29. April 2011

EAC extraction logfile from 8. October 2011, 17:18

Mahavishnu Orchestra / Apocalypse

Used drive : PIONEER DVD-RW DVR-108 Adapter: 1 ID: 0

Read mode : Secure
Utilize accurate stream : Yes
Defeat audio cache : Yes
Make use of C2 pointers : No

Read offset correction : 48
Overread into Lead-In and Lead-Out : No
Fill up missing offset samples with silence : Yes
Delete leading and trailing silent blocks : No
Null samples used in CRC calculations : Yes
Used interface : Installed external ASPI interface
Gap handling : Appended to previous track

Used output format : User Defined Encoder
Selected bitrate : 768 kBit/s
Quality : High
Add ID3 tag : No
Command line compressor : C:\NoUAC\Exact Audio Copy\FLAC\FLAC.EXE
Additional command line options : -6 -V -T "ARTIST=%artist%" -T "TITLE=%title%" -T "ALBUM=%albumtitle%"
-T "DATE=%year%" -T "TRACKNUMBER=%tracknr%" -T "GENRE=%genre%"
-T "COMMENT=EAC1.0b2 Secure Mode, Test & Copy, AccurateRip, FLAC 1.2.1 -6 (by Paky)"


TOC of the extracted CD

Track | Start | Length | Start sector | End sector
---------------------------------------------------------
1 | 0:00.00 | 4:17.10 | 0 | 19284
2 | 4:17.10 | 14:22.47 | 19285 | 83981
3 | 18:39.57 | 8:04.68 | 83982 | 120349
4 | 26:44.50 | 6:09.57 | 120350 | 148081
5 | 32:54.32 | 19:19.60 | 148082 | 235066


Track 1

Filename E:\Mahavishnu Orchestra (1974) - Apocalypse\01 - Power of Love.wav

Pre-gap length 0:00:02.00

Peak level 63.9 %
Extraction speed 1.6 X
Track quality 100.0 %
Test CRC 50B51190
Copy CRC 50B51190
Accurately ripped (confidence 15) [5501BAA8] (AR v1)
Copy OK

Track 2

Filename E:\Mahavishnu Orchestra (1974) - Apocalypse\02 - Vision is a Naked Sword.wav

Pre-gap length 0:00:03.50

Peak level 89.6 %
Extraction speed 2.1 X
Track quality 100.0 %
Test CRC DA19F108
Copy CRC DA19F108
Accurately ripped (confidence 15) [C0863CD9] (AR v1)
Copy OK

Track 3

Filename E:\Mahavishnu Orchestra (1974) - Apocalypse\03 - Smile of the Beyond.wav

Pre-gap length 0:00:04.50

Peak level 70.2 %
Extraction speed 2.4 X
Track quality 100.0 %
Test CRC 61871400
Copy CRC 61871400
Accurately ripped (confidence 15) [B958178B] (AR v1)
Copy OK

Track 4

Filename E:\Mahavishnu Orchestra (1974) - Apocalypse\04 - Wings of Karma.wav

Pre-gap length 0:00:04.50

Peak level 94.0 %
Extraction speed 2.6 X
Track quality 100.0 %
Test CRC 59CB12A6
Copy CRC 59CB12A6
Accurately ripped (confidence 15) [55694679] (AR v1)
Copy OK

Track 5

Filename E:\Mahavishnu Orchestra (1974) - Apocalypse\05 - Hymn to Him.wav

Pre-gap length 0:00:03.50

Peak level 97.2 %
Extraction speed 3.1 X
Track quality 100.0 %
Test CRC CC8A509A
Copy CRC CC8A509A
Accurately ripped (confidence 15) [4D1275A9] (AR v1)
Copy OK


All tracks accurately ripped

No errors occurred

End of status report

==== Log checksum 8B4FFF078096FDDE22C146E6D392B4422AB1CCC41AEF58DE29C14B05494E7359 ====

Related torrents

Torrent NameAddedSizeSeedLeechHealth
Verified torrent
1 Year+ - in Music248.44 MB716
1 Year+ - in Music298.34 MB114
Verified torrent
1 Year+ - in Music389.13 MB713
Verified torrent
1 Year+ - in Music414.64 MB32
Verified torrent
1 Year+ - in Music367.87 MB118

Comments (0 Comments)




Please login or create a FREE account to post comments

Latest Searches

| zoom 2016 part 4 | 4k nickey gets her asshole stretched by a 12 inch | Trgovci | NewSensations 16 02 11 My Sisters First Gangbang XXX 1080p MP4 KTR | step video | s chauhan | clips4sale camryn steve pregnant mp4 | Guy Sebastian Lupe Fiasco Battle Scars | urban font | Dependientes |