Quick Browse
Movies
TV shows
Music
Games
Applications
Anime
Other
Facebook
Advertising

Friends
Torrent Download
Movie4u
1337x.to
Torrent Downloads




Verified torrent Mahavishnu Orchestra - Birds of Fire [Eac Flac Cue-TNTVillage]


    Seeders : 7      Leechers : 16

Trackers List

Tracker NameLast CheckStatusSeedersLeechers




Torrent File Content (16 files)


Mahavishnu Orchestra (1973) - Birds of Fire
     07 - One Word.flac -
62.42 MB

     01 - Birds of Fire.flac -
38.56 MB

     08 - Sanctuary.flac -
30.22 MB

     02 - Miles Beyond.flac -
27.51 MB

     09 - Open Country Joy.flac -
23.08 MB

     03 - Celestial Terrestrial Commuters.flac -
20.2 MB

     05 - Thousand Island Park.flac -
15.16 MB

     10 - Resolution.flac -
13.51 MB

     06 - Hope.flac -
13.03 MB

     04 - Sapphire Bullets of Pure Love.flac -
2.29 MB

    cover
          back.jpg -
1.1 MB

          front.jpg -
1015.44 KB

          cd.jpg -
363.04 KB

     Mahavishnu Orchestra - Birds of Fire.log -
10.93 KB

     Birds of Fire.cue -
1.76 KB

     Mahavishnu Orchestra - Birds of Fire.m3u -
272 bytes



Description



.: Original Release:.
http://www.tntvillage.scambioetico.org/?act=showrelease&id=267331

[::Cover::]

http://img268.imageshack.us/img268/9436/covermoj.jpg


Artist: Mahavishnu Orchestra
Title: Birds of Fire [Columbia Contemporary Masters]
Genre: Jazz-Rock
Year: 1973

[ :: Tracklist :: ]
1. Birds of fire [5:47]
2. Miles beyond [4:42]
3. Celestial terrestrial commuters [2:53]
4. Sapphire bullets of pure love [0:23]
5. Thousand island park [3:22]
6. Hope [1:58]
7. One word [9:56]
8. Sanctuary [5:05]
9. Open country joy [3:56]
10. Resolution [2:11]

[ :: Technical Data :: ]
Encoder: EAC 1.02 b3 (Secure Mode,Test & Copy,AccurateRip)
Codec: Flac 1.2.1
Profile: 6


EAC LOG:

Exact Audio Copy V1.0 beta 2 from 29. April 2011

EAC extraction logfile from 8. October 2011, 16:14

Mahavishnu Orchestra / Birds of Fire

Used drive : PIONEER DVD-RW DVR-108 Adapter: 1 ID: 0

Read mode : Secure
Utilize accurate stream : Yes
Defeat audio cache : Yes
Make use of C2 pointers : No

Read offset correction : 48
Overread into Lead-In and Lead-Out : No
Fill up missing offset samples with silence : Yes
Delete leading and trailing silent blocks : No
Null samples used in CRC calculations : Yes
Used interface : Installed external ASPI interface
Gap handling : Appended to previous track

Used output format : User Defined Encoder
Selected bitrate : 768 kBit/s
Quality : High
Add ID3 tag : No
Command line compressor : C:\NoUAC\Exact Audio Copy\FLAC\FLAC.EXE
Additional command line options : -6 -V -T "ARTIST=%artist%" -T "TITLE=%title%" -T "ALBUM=%albumtitle%"
-T "DATE=%year%" -T "TRACKNUMBER=%tracknr%" -T "GENRE=%genre%"
-T "COMMENT=EAC1.0b2 Secure Mode, Test & Copy, AccurateRip, FLAC 1.2.1 -6 (by Paky)"


TOC of the extracted CD

Track | Start | Length | Start sector | End sector
---------------------------------------------------------
1 | 0:00.00 | 5:47.12 | 0 | 26036
2 | 5:47.12 | 4:42.30 | 26037 | 47216
3 | 10:29.42 | 2:53.58 | 47217 | 60249
4 | 13:23.25 | 0:23.05 | 60250 | 61979
5 | 13:46.30 | 3:22.10 | 61980 | 77139
6 | 17:08.40 | 1:58.42 | 77140 | 86031
7 | 19:07.07 | 9:56.55 | 86032 | 130786
8 | 29:03.62 | 5:05.25 | 130787 | 153686
9 | 34:09.12 | 3:56.60 | 153687 | 171446
10 | 38:05.72 | 2:10.40 | 171447 | 181236


Track 1

Filename E:\Mahavishnu Orchestra (1973) - Birds of Fire\01 - Birds of Fire.wav

Pre-gap length 0:00:02.00

Peak level 100.0 %
Extraction speed 4.8 X
Track quality 100.0 %
Test CRC 060DC19F
Copy CRC 060DC19F
Accurately ripped (confidence 4) [8EA34484] (AR v2)
Copy OK

Track 2

Filename E:\Mahavishnu Orchestra (1973) - Birds of Fire\02 - Miles Beyond.wav

Pre-gap length 0:00:04.35

Peak level 89.8 %
Extraction speed 5.3 X
Track quality 100.0 %
Test CRC EB5DCF16
Copy CRC EB5DCF16
Accurately ripped (confidence 4) [832D69F3] (AR v2)
Copy OK

Track 3

Filename E:\Mahavishnu Orchestra (1973) - Birds of Fire\03 - Celestial Terrestrial Commuters.wav

Pre-gap length 0:00:03.40

Peak level 89.6 %
Extraction speed 5.3 X
Track quality 100.0 %
Test CRC 01316E4D
Copy CRC 01316E4D
Accurately ripped (confidence 4) [3E88EDF7] (AR v2)
Copy OK

Track 4

Filename E:\Mahavishnu Orchestra (1973) - Birds of Fire\04 - Sapphire Bullets of Pure Love.wav

Peak level 42.9 %
Extraction speed 2.4 X
Track quality 100.0 %
Test CRC 2D3EA150
Copy CRC 2D3EA150
Accurately ripped (confidence 4) [6E8979C5] (AR v2)
Copy OK

Track 5

Filename E:\Mahavishnu Orchestra (1973) - Birds of Fire\05 - Thousand Island Park.wav

Pre-gap length 0:00:01.60

Peak level 55.5 %
Extraction speed 5.7 X
Track quality 100.0 %
Test CRC A82F6F95
Copy CRC A82F6F95
Accurately ripped (confidence 4) [EE2DB362] (AR v2)
Copy OK

Track 6

Filename E:\Mahavishnu Orchestra (1973) - Birds of Fire\06 - Hope.wav

Pre-gap length 0:00:02.08

Peak level 79.0 %
Extraction speed 5.3 X
Track quality 100.0 %
Test CRC 2FBB9696
Copy CRC 2FBB9696
Accurately ripped (confidence 4) [B7E0A5EE] (AR v2)
Copy OK

Track 7

Filename E:\Mahavishnu Orchestra (1973) - Birds of Fire\07 - One Word.wav

Pre-gap length 0:00:01.55

Peak level 83.9 %
Extraction speed 7.2 X
Track quality 100.0 %
Test CRC 894FE470
Copy CRC 894FE470
Accurately ripped (confidence 4) [B0D9891F] (AR v2)
Copy OK

Track 8

Filename E:\Mahavishnu Orchestra (1973) - Birds of Fire\08 - Sanctuary.wav

Pre-gap length 0:00:01.60

Peak level 77.8 %
Extraction speed 7.4 X
Track quality 100.0 %
Test CRC 798AD2AC
Copy CRC 798AD2AC
Accurately ripped (confidence 4) [21E8E1BF] (AR v2)
Copy OK

Track 9

Filename E:\Mahavishnu Orchestra (1973) - Birds of Fire\09 - Open Country Joy.wav

Pre-gap length 0:00:03.05

Peak level 91.0 %
Extraction speed 7.4 X
Track quality 100.0 %
Test CRC FB696953
Copy CRC FB696953
Accurately ripped (confidence 4) [E4CE3DB2] (AR v2)
Copy OK

Track 10

Filename E:\Mahavishnu Orchestra (1973) - Birds of Fire\10 - Resolution.wav

Pre-gap length 0:00:03.02

Peak level 81.6 %
Extraction speed 6.8 X
Track quality 100.0 %
Test CRC CE6DB796
Copy CRC CE6DB796
Accurately ripped (confidence 4) [1A442849] (AR v2)
Copy OK


All tracks accurately ripped

No errors occurred

End of status report

==== Log checksum A542CAD11C7831B31C8DD0747D04D25E68CB7E9649393B80798424217B9F4D18 ====

Related torrents

Torrent NameAddedSizeSeedLeechHealth
3 months ago - in Music3.05 GB00
1 Year+ - in Music230.46 MB12
1 Year+ - in Music1.89 GB00
1 Year+ - in Music97.05 MB00
1 Year+ - in Music837.35 MB00

Comments (0 Comments)




Please login or create a FREE account to post comments

Latest Searches

| Tech 9 The Storm | Arrival 2016 720p BRRip x264 AAC EVRG | Doctors Orders 2014 WEB DL | 2002 | west coast rap hip hop | 1 2 3 4 norte | Sonokinetic Ney 1 1 KONTAKT | eazy xmas | Eloa Lombard double | catalyst obvi |