Quick Browse
Movies
TV shows
Music
Games
Applications
Anime
Other
Facebook
Advertising

Friends
Torrent Download
Movie4u
1337x.to
Torrent Downloads




Malveillance (2011) FRENCH TS XviD-MAXSPEED


    Seeders : 2      Leechers : 0
Hash :C3AD3A0CB6E2BFAC768B3CCD15E0CF9C178BD688
Added :1 Year+ by L0LPLZVerified torrent uploader in Movies
Size :701.58 MB
Stream :WATCH ONLINE @ Movie4u


Malveillance (2011) FRENCH TS XviD-MAXSPEED
Free and Fast Download with Usenet 300GB+ free







Trackers List

Tracker NameLast CheckStatusSeedersLeechers




Torrent File Content (5 files)


Malveillance (2011) FRENCH TS XviD-MAXSPEED
     Malveillance (2011) FRENCH TS XviD-MAXSPEED.rar -
701.34 MB

     malveillance-affiche-fr.jpg -
240.25 KB

     LISEZ MOI - Important.txt -
2.03 KB

     Malveillance (2011) FRENCH TS XviD-MAXSPEED.nfo -
1.83 KB

     Torrent Downloaded From ExtraTorrent.com.txt -
367 bytes



Description



Malveillance (2011) FRENCH TS XviD-MAXSPEED

http://www.imdb.fr/title/tt1437358/

Date de sortie: 28 décembre 2011 (1h 42min)
Réalisé par: Jaume Balagueró
Avec: Luis Tosar, Marta Etura, Alberto San Juan plus
Genre: Thriller
Nationalité: Espagnol


Video
ID : 0
Format : MPEG-4 Visual
Format profile : [email protected]
Format settings, BVOP : Yes
Format settings, QPel : No
Format settings, GMC : No warppoints
Format settings, Matrix : Custom
Codec ID : XVID
Codec ID/Hint : XviD
Duration : 1h 42mn
Bit rate : 1 737 Kbps
Width : 720 pixels
Height : 400 pixels
Display aspect ratio : 16:9
Frame rate : 23.976 fps
Resolution : 24 bits
Colorimetry : 4:2:0
Scan type : Progressive
Bits/(Pixel*Frame) : 0.252
Stream size : 1.27 GiB (82%)
Writing library : XviD 58

Audio
ID : 1
Format : AC-3
Format/Info : Audio Coding 3
Codec ID : 2000
Duration : 1h 42mn
Bit rate mode : Constant
Bit rate : 384 Kbps
Channel(s) : 6 channels
Channel positions : Front: L C R, Surround: L R, LFE
Sampling rate : 48.0 KHz
Stream size : 287 MiB (18%)
Alignment : Aligned on interleaves
Interleave, duration : 64 ms (1.53 video frames)
Interleave, preload duration : 192 ms


Recommandé pour tous nos films
http://www.videolan.org/vlc/

N'OUBLIEZ PAS: Dieu exige AMOUR, DE GRAINES, les pairs et un ratio TORRENT JUSTE

Related torrents

Torrent NameAddedSizeSeedLeechHealth
1 Year+ - in Movies701.95 MB1422
1 Comments
1 Year+ - in Movies701.36 MB00
1 Year+ - in Movies701.36 MB00
1 Comments
1 Year+ - in Movies712.36 MB422
1 Year+ - in Movies712.36 MB64

Comments (0 Comments)




Please login or create a FREE account to post comments

Latest Searches

| tweaking com windows repair pro 3 9 9 | 18 Ek Bindaas Aunty 2015 DVDRip | starboy | EuroTeenErotica Luna Rival Rebecca Volpetti | Band aid 3 Do they know | 2 A M iron maiden | ozzfest 2003 | mom karol | Master p from the hood to Hollywood | Hardcore Climax 7 |