Quick Browse
Movies
TV shows
Music
Games
Applications
Anime
Other
Facebook
Advertising

Friends
Torrent Download
Movie4u
1337x.to
Torrent Downloads




Verified torrent Man On A Ledge 2012 720p CAM READNFO XviD-26k


    Seeders : 1      Leechers : 0
Hash :9D2B6ABC48725504FC3C921C3CA0E269F51FEAD9
Added :1 Year+ by memory100Verified torrent uploader in Movies
Size :2.48 GB
Stream :WATCH ONLINE @ Movie4u


Man On A Ledge 2012 720p CAM READNFO XviD-26k
Free and Fast Download with Usenet 300GB+ free







Trackers List

Tracker NameLast CheckStatusSeedersLeechers




Torrent File Content (13 files)


Man On A Ledge 2012 720p CAM READNFO XviD-26k
     1.png -
552.27 KB

     2.png -
557.9 KB

     26k nfo.nfo -
3.89 KB

     3.png -
515.95 KB

     4.png -
533.87 KB

     att-networks.com.txt -
39 bytes

     HDSceneRG.txt -
115 bytes

     Man On A Ledge 2012 720p CAM READNFO XviD-26k.avi -
2.47 GB

     Man On A Ledge 2012 720p CAM READNFO XviD-26k.jpg -
94.84 KB

     sceneunderground.org.txt -
77 bytes

     Torrent downloaded from Demonoid.me.txt -
46 bytes

     Torrent downloaded from rarbg.com.txt.txt -
0 bytes

     YouTube Latest Releases And Archive.txt -
80 bytes



Description



http://img259.imageshack.us/img259/7030/manonledge.jpg

[code]
Man On A Ledge 2012 720p CAM READNFO XviD-26k

http://www.imdb.com/title/tt1568338/

Plot:
As a police psychologist works to talk down an ex-con who is threatening to jump from a Manhattan hotel rooftop, the biggest diamond heist ever committed is in motion.

Sources - Video= P76...Thanks :P
Audio=NOGRP...thanks :P

Format : AVI
Format/Info : Audio Video Interleave
Format profile : OpenDML
File size : 2.47 GiB
Duration : 1h 35mn
Overall bit rate : 3 722 Kbps
Writing library : VirtualDub build 32839/release

Video
ID : 0
Format : MPEG-4 Visual
Format profile : Advanced [email protected]
Format settings, BVOP : 2
Format settings, QPel : No
Format settings, GMC : No warppoints
Format settings, Matrix : Default (H.263)
Muxing mode : Packed bitstream
Codec ID : XVID
Codec ID/Hint : XviD
Duration : 1h 35mn
Bit rate : 3 455 Kbps
Width : 1 280 pixels
Height : 460 pixels
Display aspect ratio : 2.783
Frame rate : 25.000 fps
Color space : YUV
Chroma subsampling : 4:2:0
Bit depth : 8 bits
Scan type : Progressive
Compression mode : Lossy
Bits/(Pixel*Frame) : 0.235
Stream size : 2.30 GiB (93%)
Writing library : XviD 1.2.1 (UTC 2008-12-04)

Audio
ID : 1
Format : MPEG Audio
Format version : Version 1
Format profile : Layer 3
Codec ID : 55
Codec ID/Hint : MP3
Duration : 1h 34mn
Bit rate mode : Constant
Bit rate : 256 Kbps
Channel(s) : 2 channels
Sampling rate : 44.1 KHz
Compression mode : Lossy
Stream size : 173 MiB (7%)
Alignment : Split accross interleaves
Interleave, duration : 40 ms (1.01 video frame)



Notes -

Cropped, resized,slight rotation and perspective, denoise, slight rgb, levels, brightness.
now the reason for READNFO.. there is 1 minute missing from movie.. not worth the trouble to
upscale the missing 1 minute from NOGRP's cam cuz it just dont look good regardless ur not
missing much in that 1 minute to worry about ..then just synced and muxed NOGRP's cam audio to it..
turned out decent.. not greatest but will work til R5 or better comes along.. enjoy

[/code]
Screens:
http://i.imgur.com/zikEa.png

http://i.imgur.com/Ea33p.png

http://img854.imageshack.us/img854/892/51717054.png

http://img29.imageshack.us/img29/2462/13108819.png

http://img705.imageshack.us/img705/7076/manonaledge2012720pcamr.jpg


Alternative screens:
http://www.hotimg.com/image/YBfGVMG
http://dippic.com/jjkjs42r1fgk
http://imgdepot.org/show/20120302/2/901894_2.png
http://www.imageporter.com/i8j36q7wm9su/4.png

Greetz:
Xtreme Encode|FYA|ILLUMANTI|CM8|RX|VISI​ON|HDSCENE|xTriLL|DTRG|CRYS|REMIX​HD|BIDA|RX|REFILL|INSPiRAL|SIC|
|HO​PE|Anonymous|GooN
To all the people who have helped me you know who you are

Anything to offer email us @: [email protected]


http://img851.imageshack.us/img851/5503/26ks.jpg

Thank you smallz for banner!

Related torrents

Torrent NameAddedSizeSeedLeechHealth
1 Year+ - in Movies526.55 MB10
1 Year+ - in Movies705.21 MB112
1 Year+ - in Movies1.41 GB28
1 Year+ - in Movies1.41 GB00
Verified torrent
1 Year+ - in Movies705.21 MB141322

Comments (0 Comments)




Please login or create a FREE account to post comments

Latest Searches

| fast n furious 6 dual audio | Duel Masters episode | planet earth part 5 | metallica hardwired to self destruct cd deluxe ak320 | 2016 1080p | techsmith camtasia studio 9 Repack | photoshop brush ink | xxx allie | Introduction to Data Structures Algorithms | The Official UK Top 40 Singles Chart 02 December 2016 |