Quick Browse
Movies
TV shows
Music
Games
Applications
Anime
Other
Facebook
Advertising

Friends
Torrent Download
Movie4u
1337x.to
Torrent Downloads




Verified torrent Manatlya Manat [2010] Marathi Xvid 1 CD [email protected]


    Seeders : 7      Leechers : 16

Trackers List

Tracker NameLast CheckStatusSeedersLeechers




Torrent File Content (1 file)


     Manatlya Manat [2010] - Xvid - 1 CD VCDRip - MDG Exclusive.avi -
697.35 MB



Description



[color=green][font=Georgia]Info -
Cast -
Girish Oak
Hemangi Kavi
Rajan Tamahne
Anand Abhayankar.

Media Info -
General
Name : Manatlya Manat
Format : AVI
Format/Info : Audio Video Interleave
Format profile : OpenDML
File size : 697 MiB
Duration : 1h 29mn
Overall bit rate : 1 094 Kbps
Writing application : AVI-Mux GUI 1.17.8.3


Video
ID : 0
Format : MPEG-4 Visual
Format profile : Advanced [email protected]
Format settings, BVOP : Yes
Format settings, QPel : No
Format settings, GMC : No warppoints
Format settings, Matrix : Default (H.263)
Codec ID : XVID
Codec ID/Hint : XviD
Duration : 1h 29mn
Bit rate : 1 027 Kbps
Width : 640 pixels
Height : 336 pixels
Display aspect ratio : 1.905
Frame rate : 25.000 fps
Color space : YUV
Chroma subsampling : 4:2:0
Bit depth : 8 bits
Scan type : Progressive
Bits/(Pixel*Frame) : 0.191
Stream size : 654 MiB (94%)
Writing library : XviD 1.2.1


Audio
ID : 1
Format : MPEG Audio
Format version : Version 2
Format profile : Layer 3
Mode : Joint stereo
Mode extension : MS Stereo
Codec ID : 55
Codec ID/Hint : MP3
Duration : 1h 29mn
Bit rate mode : Constant
Bit rate : 64.0 Kbps
Channel(s) : 2 channels
Sampling rate : 24.0 KHz
Stream size : 40.8 MiB (6%)
Alignment : Aligned on interleaves
Interleave, duration : 779 ms (19.48 video frames)
Interleave, preload duration : 216 ms
Title : Manatlya Manat Final Tc0 L2 2ch 44.1 224 DELAY 0ms
Writing library : LAME3.98r
[/font][/color]

http://img16.imageshack.us/img16/1140/29zuvbjpg.png

http://img694.imageshack.us/img694/6555/2007b0mjpg.png

http://img814.imageshack.us/img814/8121/3444a4mjpg.png

http://img168.imageshack.us/img168/6886/wjh0lujpg.png


Related torrents

Torrent NameAddedSizeSeedLeechHealth
Verified torrent
1 Year+ - in Movies697.21 MB2418
Verified torrent
1 Year+ - in Movies705.74 MB01
Verified torrent
1 Year+ - in Movies697.76 MB261
Verified torrent
1 Year+ - in Movies696.59 MB3019
Verified torrent
1 Year+ - in Movies688.36 MB3889

Comments (0 Comments)




Please login or create a FREE account to post comments

Latest Searches

| feat nipsey | All Girls All The Time 3 | beat R B | The Ultimate Guide To Jewelry Making for Beginners | flawless c remix | Baggage Battles s05e13 | va addicted to deep house best of deep house music 2014 mp3 | 5 inco | Nine Inch Nails Burn | clips4sale lily rader promise |