Quick Browse
Movies
TV shows
Music
Games
Applications
Anime
Other
Facebook
Advertising

Friends
Torrent Download
Movie4u
1337x.to
Torrent Downloads




Verified torrent Maratha Battalion - Marathi - Xvid - DTHRip - [email protected]


    Seeders : 1      Leechers : 0

Trackers List

Tracker NameLast CheckStatusSeedersLeechers




Torrent File Content (1 file)


     Maratha Battalion - Xvid - DTHRip - MDG Exclusive.avi -
891.94 MB



Description



[font=Georgia]Info -
Cast -
Laxmikant Berde
Kuldeep Pawar
Ramesh Bhatkar
Alka Kubal
Vijay Chavan
Bharat Jadhav
Deepa Parab
Sandeep Bansali
Ragvendra Kadkol
Deepak Shirke.

Media Info -
General
General
Name : Maratha Battalion
Format : AVI
Format/Info : Audio Video Interleave
Format profile : OpenDML
File size : 892 MiB
Duration : 2h 26mn
Overall bit rate : 852 Kbps
Writing application : AVI-Mux GUI 1.17.8.3


Video
ID : 0
Format : MPEG-4 Visual
Format profile : Advanced [email protected]
Format settings, BVOP : Yes
Format settings, QPel : No
Format settings, GMC : No warppoints
Format settings, Matrix : Default (H.263)
Codec ID : XVID
Codec ID/Hint : XviD
Duration : 2h 26mn
Bit rate : 784 Kbps
Width : 608 pixels
Height : 256 pixels
Display aspect ratio : 2.35:1
Frame rate : 25.000 fps
Color space : YUV
Chroma subsampling : 4:2:0
Bit depth : 8 bits
Scan type : Progressive
Bits/(Pixel*Frame) : 0.202
Stream size : 821 MiB (92%)
Writing library : XviD 1.2.1


Audio
ID : 1
Format : MPEG Audio
Format version : Version 2
Format profile : Layer 3
Mode : Joint stereo
Mode extension : MS Stereo
Codec ID : 55
Codec ID/Hint : MP3
Duration : 2h 26mn
Bit rate mode : Constant
Bit rate : 64.0 Kbps
Channel(s) : 2 channels
Sampling rate : 24.0 KHz
Stream size : 67.0 MiB (8%)
Alignment : Aligned on interleaves
Interleave, duration : 898 ms (22.45 video frames)
Interleave, preload duration : 216 ms
[/font]

http://img809.imageshack.us/img809/8599/2bzn69.jpg

http://img197.imageshack.us/img197/5194/10elz7m.jpg

http://img87.imageshack.us/img87/71/1582vtc.jpg


Related torrents

Torrent NameAddedSizeSeedLeechHealth
1 Year+ - in Movies704.12 MB11
1 Year+ - in Movies705.52 MB14
Verified torrent
1 Year+ - in Movies700.76 MB55190
Verified torrent
1 Year+ - in Movies706.3 MB00
Verified torrent
1 Year+ - in Movies688.36 MB3889

Comments (0 Comments)




Please login or create a FREE account to post comments

Latest Searches

| Jimmy Burns It Aint Right | Telarc Super | AsianAmericanTGirls Ren Rika Poolside | tomtom | defender s01e01 | grave visions | vst and co | diamond kitty new 2013 | alex grey brandi | New Girl S06E09 720p HDTV x264 SVA |