Quick Browse
Movies
TV shows
Music
Games
Applications
Anime
Other
Facebook
Advertising

Friends
Torrent Download
Movie4u
1337x.to
Torrent Downloads




Marillion - From Stoke Row To Ipanema (2003) [DVD5+DVD9]


    Seeders : 6      Leechers : 14

Trackers List

Tracker NameLast CheckStatusSeedersLeechers




Torrent File Content (38 files)


Marillion - From Stoke Row To Ipanema [2xDVD5] [H33t] by jobam
    Mari DVD2
          VIDEO_TS/VTS_01_2.VOB -
1024 MB

          VIDEO_TS/VTS_01_6.VOB -
1024 MB

          VIDEO_TS/VTS_01_1.VOB -
1024 MB

          VIDEO_TS/VTS_01_5.VOB -
1024 MB

    Mari DVD1
          VIDEO_TS/VTS_01_3.VOB -
1024 MB

    Mari DVD2
          VIDEO_TS/VTS_01_4.VOB -
1024 MB

          VIDEO_TS/VTS_01_7.VOB -
1024 MB

    Mari DVD1
          VIDEO_TS/VTS_01_1.VOB -
1024 MB

          VIDEO_TS/VTS_01_2.VOB -
1024 MB

    Mari DVD2
          VIDEO_TS/VTS_01_3.VOB -
1024 MB

    Mari DVD1
          VIDEO_TS/VTS_01_4.VOB -
327.28 MB

    Mari DVD2
          VIDEO_TS/VTS_01_8.VOB -
94.42 MB

          VIDEO_TS/VTS_01_0.VOB -
73.18 MB

    Mari DVD1
          VIDEO_TS/VTS_01_0.VOB -
38.44 MB

    Mari DVD2
          Covers/Marillion - From Stoke Row To Ipanema 2.jpg -
2.52 MB

    Mari DVD1
          Covers/Marillion - From Stoke Row To Ipanema 2.jpg -
2.52 MB

          Covers/Marillion - From Stoke Row To Ipanema 1.jpg -
2.19 MB

    Mari DVD2
          Covers/Marillion - From Stoke Row To Ipanema 1.jpg -
2.19 MB

          Covers/Marillion - From Stoke Row To Ipanema 4.jpg -
1.26 MB

    Mari DVD1
          Covers/Marillion - From Stoke Row To Ipanema 4.jpg -
1.26 MB

    Mari DVD2
          Covers/Marillion - From Stoke Row To Ipanema 5.jpg -
1.24 MB

    Mari DVD1
          Covers/Marillion - From Stoke Row To Ipanema 5.jpg -
1.24 MB

          Covers/Marillion - From Stoke Row To Ipanema 3.jpg -
1.2 MB

    Mari DVD2
          Covers/Marillion - From Stoke Row To Ipanema 3.jpg -
1.2 MB

          Covers/Marillion - From Stoke Row To Ipanema 7.jpg -
654.94 KB

    Mari DVD1
          Covers/Marillion - From Stoke Row To Ipanema 7.jpg -
654.94 KB

          Covers/Marillion - From Stoke Row To Ipanema 6.jpg -
634.18 KB

    Mari DVD2
          Covers/Marillion - From Stoke Row To Ipanema 6.jpg -
634.18 KB

    Mari DVD1
          VIDEO_TS/VIDEO_TS.VOB -
174 KB

    Mari DVD2
          VIDEO_TS/VIDEO_TS.VOB -
174 KB

          VIDEO_TS/VTS_01_0.BUP -
112 KB

          VIDEO_TS/VTS_01_0.IFO -
112 KB

    Mari DVD1
          VIDEO_TS/VTS_01_0.BUP -
52 KB

          VIDEO_TS/VTS_01_0.IFO -
52 KB

          VIDEO_TS/VIDEO_TS.BUP -
12 KB

    Mari DVD2
          VIDEO_TS/VIDEO_TS.BUP -
12 KB

          VIDEO_TS/VIDEO_TS.IFO -
12 KB

    Mari DVD1
          VIDEO_TS/VIDEO_TS.IFO -
12 KB



Description



Marillion - From Stoke Row To Ipanema (2003)


http://s3.imagestime.com/images.php/i4500_marilion.png



http://s6.imagestime.com/images.php/i3401_DVDdetails.png


Original Title: Marillion - From Stoke Row To Ipanema (2003)
Nation: UK
Year: 2003
Genre: Rock
FSP: 25.000
Format: DVD9+DVD5
Lenght: 183 min
Dimension: 13 Gb
Video Format: MPEG video ver.2
Subtitle:


The story of Steve Hogarth joining the band plus live performances from the Seasons End tour. The live performance is great, Steve H. was a newbie but everything went well, surprisingly well. You can actually see H's enthusiasm and the energy he brought to the band. This excellent 2dvd set is a must-have for any true Marillion and great music fan.




http://s6.imagestime.com/images.php/i3403_tracklist.png


DVD 1:

1. Hooks in You (Video)
2. Steve Joining the Band *
3. Steve's First Gig *
4. Steve's First Tour *
5. Uninvited Guest *
6. Uninvited Guest (Video)
7. Keyboard Parts *
8. Eric (Demo)
9. Brazil *
10 .Kayleigh (Live)
11. Lavender (Live)
12. Hooks in You (Live)
13. Easter *
14. Easter (Video)
15. Writing the Next Album *
16. This Town (Demo)

* Live at Hollywood Rock Festival, Brazil 1990

VD 2:

1. Backstage
2. The King of Sunset Town
3. Slainte Mhath
4. Easter
5. Uninvited Guest
6. Warm Wet Circles
7 .That Time of the Night
8. Holloway Girl
9. Berlin
10. Seasons End
11. Hooks in You
12. The Space...
13. Kayleigh
14. Lavender
15. Heart of Lothian
16. Incommunicado
17. After Me
18. Market Square Heroes

Live at the De Montfort Hall, Leicester, England 1990

Bonus Material 'Director's Cuts':

19. The King of Sunset Town
20. Easter
21. Holloway Girl
22. Berlin
23. Seasons End
24. Incommunicado




http://s6.imagestime.com/images.php/i3402_DVDtechnicaldata.png


[code]General

DVD 1

Complete name : F:\download\Vari\Marillion - From Stoke Row To Ipanema\Marilhgyttgdsabcpvoywt.jhggf..u8\Mari DVD1\VIDEO_TS\VTS_01_0.VOB
Format : MPEG-PS
File size : 38.4 MiB
Duration : 35s 40ms
Overall bit rate : 9 202 Kbps

Video
ID : 224 (0xE0)
Format : MPEG Video
Format version : Version 2
Format profile : [email protected]
Format settings, BVOP : Yes
Format settings, Matrix : Default
Format settings, GOP : M=2, N=4
Duration : 35s 40ms
Bit rate : 8 827 Kbps
Maximum bit rate : 8 000 Kbps
Width : 720 pixels
Height : 576 pixels
Display aspect ratio : 4:3
Frame rate : 25.000 fps
Standard : PAL
Color space : YUV
Chroma subsampling : 4:2:0
Bit depth : 8 bits
Scan type : Progressive
Compression mode : Lossy
Bits/(Pixel*Frame) : 0.851
Stream size : 36.9 MiB (96%)
Color primaries : SMPTE 170M
Transfer characteristics : SMPTE 170M
Matrix coefficients : SMPTE 170M

Audio
ID : 189 (0xBD)-128 (0x80)
Format : AC-3
Format/Info : Audio Coding 3
Mode extension : CM (complete main)
Muxing mode : DVD-Video
Duration : 35s 40ms
Bit rate mode : Constant
Bit rate : 192 Kbps
Channel(s) : 2 channels
Channel positions : Front: L R
Sampling rate : 48.0 KHz
Bit depth : 16 bits
Compression mode : Lossy
Stream size : 821 KiB (2%)

Text
ID : 189 (0xBD)-32 (0x20)
Format : RLE
Format/Info : Run-length encoding
Muxing mode : DVD-Video


DVD 2

General
Complete name : F:\download\Vari\Marillion - From Stoke Row To Ipanema\Marilhgyttgdsabcpvoywt.jhggf..u8\Mari DVD2\VIDEO_TS\VTS_01_1.VOB
Format : MPEG-PS
File size : 1 024 MiB
Duration : 13mn 48s
Overall bit rate mode : Variable
Overall bit rate : 10.4 Mbps

Video
ID : 224 (0xE0)
Format : MPEG Video
Format version : Version 2
Format profile : [email protected]
Format settings, BVOP : Yes
Format settings, Matrix : Custom
Duration : 13mn 48s
Bit rate mode : Variable
Bit rate : 8 625 Kbps
Maximum bit rate : 9 800 Kbps
Width : 720 pixels
Height : 576 pixels
Display aspect ratio : 4:3
Frame rate : 25.000 fps
Standard : PAL
Color space : YUV
Chroma subsampling : 4:2:0
Bit depth : 8 bits
Scan type : Interlaced
Scan order : Top Field First
Compression mode : Lossy
Bits/(Pixel*Frame) : 0.832
Stream size : 852 MiB (83%)

Audio
ID : 189 (0xBD)-160 (0xA0)
Format : PCM
Format settings, Endianness : Big
Format settings, Sign : Signed
Muxing mode : DVD-Video
Duration : 13mn 48s
Bit rate mode : Constant
Bit rate : 1 536 Kbps
Channel(s) : 2 channels
Channel positions : Front: L R
Sampling rate : 48.0 KHz
Bit depth : 16 bits
Stream size : 152 MiB (15%)
[/code]

Related torrents

Torrent NameAddedSizeSeedLeechHealth
1 Year+ - in Other45.26 MB00
1 Year+ - in Music459.43 MB00
8 months ago - in Other148.44 GB00
6 months ago - in Other3.76 GB00
Last Month - in Movies4 GB00

Comments (0 Comments)




Please login or create a FREE account to post comments

Latest Searches

| teenstryblacks Cristal | Garrison Paul | femout danielle shavanoxx danielle spreads wide 10 aug 2015 720p rq | run man down | windows 8 1 loader key | the consciousness of consciousness | blacked scenes | The Big Bang Theory 6 brrip | Watch4Beauty 16 01 17 Dellai Twins Pleasure Island 1080p MP4 KTR N1C | Kink University KU 39312 Bella Rossi and Owen Gray Med Hi HD |