Quick Browse
Movies
TV shows
Music
Games
Applications
Anime
Other
Facebook
Advertising

Friends
Torrent Download
Movie4u
1337x.to
Torrent Downloads




Verified torrent Marisa Monte - Verde Anil Amarelo Cor De Rosa Carvao[EacFlacCue](TntVillage)


    Seeders : 37      Leechers : 12

Trackers List

Tracker NameLast CheckStatusSeedersLeechers




Torrent File Content (18 files)


Marisa Monte - Verde Anil Amarelo Cor De Rosa Carvao
     00._%MarisaMonte%VerdeAnilAmareloCorDeRosaECarvao%.nfo -
2.4 KB

     01 - Maria de Verdade.flac -
23.02 MB

     02 - Na Estrada.flac -
23.38 MB

     03 - Ao Meu Redor.flac -
23.34 MB

     04 - Segue O Seco.flac -
32.78 MB

     05 - Pale Blue Eyes.flac -
28.38 MB

     06 - Dança da Solidão.flac -
20.76 MB

     07 - De Mais Ninguém.flac -
21.44 MB

     08 - Alta Noite.flac -
22.72 MB

     09 - O Céu.flac -
22.56 MB

     10 - Bem Leve.flac -
13.93 MB

     11 - Balança Pema.flac -
19.59 MB

     12 - Enquanto Isso.flac -
31.13 MB

     13 - Esta Melodia.flac -
39.63 MB

     Cor De Rosa E Carvão.cue -
2.08 KB

     Marisa Monte - Verde Anil Amarelo Cor De Rosa E Carvao - Front.jpg -
90.05 KB

     Monte, Marisa - Cor De Rosa E Carvão.log -
15.33 KB

     Monte, Marisa - Cor De Rosa E Carvão.m3u -
311 bytes



Description



http://img198.imageshack.us/img198/2434/progettocover.jpg


http://img171.imageshack.us/img171/9118/marisamonteverdeanilamag.jpg


http://img854.imageshack.us/img854/4994/marisamonteverdeanilama.jpg


http://img254.imageshack.us/img254/7811/dsc00768.gif


Artist: Marisa Monta
Title Of Album: Verde, anil, amarelo, cor-de-rosa e carvão
Etichetta: Warner Bros Brasil
Pubblicazione: 1994
Genre: SambaPop
Source: CD
Playing Time: 53.03
Total Size: 322,65 MB
Quality: FLAC+Cue+Log+Info+Cover
Bitrate: Lossless


http://img98.imageshack.us/img98/9113/progettotracklist.jpg


1 Maria de verdade - (3:47)
2 Na estrada - (3:25)
3 Ao meu redor - (3:48)
4 Segue o seco - (4:53)
5 Pale Blue Eyes - (5:02)
6 Dança da solidão - (3:31)
7 De mais ninguém - (3:24)
8 Alta noite - (3:49)
9 O céu - (3:27)
10 Bem leve - (2:28)
11 Balança pema - (3:02)
12 Enquanto isso - (4:18)
13 Esta melodia - (6:34)


http://img210.imageshack.us/img210/734/progettorecensione.jpg


Il terzo lavoro di Marisa Monte (il secondo in studio) venne pubblicato tre anni dopo l'uscita di Mais. Verde, anil, amarelo, cor-de-rosa e carvão fu registrato, come il precedente, tra Rio de Janeiro e New York e fu ancora prodotto da Arto Lindsay e co-prodotto da Marisa.

Il disco segue in gran parte il canovaccio stilistico di Mais con una scelta di raffinati brani pop e soul, ma con un maggiore presenza di musica più tipicamente brasiliana. Tre anni di tournée e incontri musicali avevano fatto maturare Marisa, facendole scoprire ancora più il mondo, ma facendole riscoprire ancora di più il suo legame con Rio de Janeiro.

In Cor-de-rosa diventò ancora più solido il rapporto con i parceiros Arnaldo Antunes e Nando Reis. A loro si aggiunse però un nome nuovo: il baiano Carlinhos Brown firmò alcune delle più belle canzoni del disco tra le quali Maria de verdade e Segue o seco, pubblicata anche come singolo, diventando, da quel momento, uno dei collaboratori più stretti e fidati della cantante carioca.

Al disco parteciparono ancora ospiti di eccezione come gli arrangiatori Philip Glass e Greg Cohen, il tastierista Bernie Worrell, il trombettista Marvin Stamm, il grande Gilberto Gil, il sambista Paulinho da Viola, la cantautrice Laurie Anderson e il percussionista Naná Vasconcelos.

Verde, anil, amarelo, cor-de-rosa e carvão è da molti considerato il miglior album della carriera di Marisa Monte. Nel 2007 fu inserito nella classifica dei 100 dischi più importanti della storia della musica brasiliana dalla edizione brasiliana della rivista Rolling Stone. Un punto di arrivo per la sua carriera di virtuosista di successo e l'inizio del successivo periodo di sofisticata cantautrice. L'album fu lanciato nel mercato nord-americano con un titolo diverso in inglese, Rose and Charcoal, e fu pubblicato negli Stati Uniti dalla Blue Note. Nel 1994, infatti, Marisa firmò un contratto con la Metro Blue, una divisione della Blue Note Records, per la pubblicazione dei suoi dischi negli Stati Uniti.

Il titolo originale del disco, ripreso da una canzone scritta da Carlinhos Brown per i suoi Timbalada, è un gioco sui colori del Brasile: «Il Brasile è verde, indaco, giallo (i colori della bandiera), ma è anche rosa e nero (l'amore e il nero del carbone)». Il disco contiene quasi esclusivamente canzoni scritte da Marisa con o da i suoi parceiros Antunes, Reis e Brown e due sole cover: Pale Blue Eyes, composta da Lou Reed per i suoi Velvet Underground, e una scatenata versione di Balança pema di Jorge Ben Jor.

Inoltre sono comprese una composizione di Paulinho da Viola (Dança da solidão), che avvicinò ancor di più la musica di Marisa al samba, e Esta melodia, il suo primo omaggio alla sua scuola di samba realizzato in compagnia del gruppo musicale delle "vecchie glorie" della scuola, la Velha Guarda da Portela. Buon ascolto a tutti!!

http://img713.imageshack.us/img713/7143/progettodatitecnici.jpg

[quote]Exact Audio Copy V1.0 beta 3 from 29. August 2011

EAC extraction logfile from 10. March 2012, 19:14

Monte, Marisa / Cor De Rosa E Carvão

Used drive : HL-DT-STDVDRAM GSA-T40N Adapter: 0 ID: 0

Read mode : Secure
Utilize accurate stream : Yes
Defeat audio cache : Yes
Make use of C2 pointers : No

Read offset correction : 667
Overread into Lead-In and Lead-Out : No
Fill up missing offset samples with silence : Yes
Delete leading and trailing silent blocks : No
Null samples used in CRC calculations : Yes
Used interface : Native Win32 interface for Win NT & 2000
Gap handling : Appended to previous track

Used output format : User Defined Encoder
Selected bitrate : 896 kBit/s
Quality : High
Add ID3 tag : No
Command line compressor : C:\Program Files\Exact Audio Copy\FLAC\FLAC.EXE
Additional command line options : -8 -V -T "ARTIST=%artist%" -T "TITLE=%title%" -T "ALBUM=%albumtitle%" -T "DATE=%year%" -T "TRACKNUMBER=%tracknr%" -T "GENRE=%genre%" -T "COMMENT=%comment%" -T "BAND=%albuminterpret%" -T "ALBUMARTIST=%albuminterpret%" -T "COMPOSER=%composer%" %haslyrics%--tag-from-file=LYRICS="%lyricsfile%"%haslyrics% -T "DISCNUMBER=%cdnumber%" -T "TOTALDISCS=%totalcds%" -T "TOTALTRACKS=%numtracks%" %hascover%--picture="%coverfile%"%hascover% %source% -o %dest%


TOC of the extracted CD

Track | Start | Length | Start sector | End sector
---------------------------------------------------------
1 | 0:00.32 | 3:54.70 | 32 | 17651
2 | 3:55.27 | 3:33.65 | 17652 | 33691
3 | 7:29.17 | 3:56.18 | 33692 | 51409
4 | 11:25.35 | 5:01.07 | 51410 | 73991
5 | 16:26.42 | 5:10.23 | 73992 | 97264
6 | 21:36.65 | 3:36.25 | 97265 | 113489
7 | 25:13.15 | 3:30.70 | 113490 | 129309
8 | 28:44.10 | 3:54.10 | 129310 | 146869
9 | 32:38.20 | 3:35.20 | 146870 | 163014
10 | 36:13.40 | 2:32.25 | 163015 | 174439
11 | 38:45.65 | 3:05.52 | 174440 | 188366
12 | 41:51.42 | 4:30.05 | 188367 | 208621
13 | 46:21.47 | 6:42.53 | 208622 | 238824


Track 1

Filename F:\MY EAC[.FLAC]\Marisa Monte - Verde Anil Amarelo Cor De Rosa Carvao\01 - Maria de Verdade.flac

Pre-gap length 0:00:02.32

Peak level 95.5 %
Extraction speed 2.2 X
Track quality 100.0 %
Test CRC C68756BD
Copy CRC C68756BD
Cannot be verified as accurate (confidence 8) [FF4EEFAE], AccurateRip returned [2774A61E] (AR v2)
Copy OK

Track 2

Filename F:\MY EAC[.FLAC]\Marisa Monte - Verde Anil Amarelo Cor De Rosa Carvao\02 - Na Estrada.flac

Pre-gap length 0:00:00.12

Peak level 97.7 %
Extraction speed 2.3 X
Track quality 100.0 %
Test CRC 3833C5B5
Copy CRC 3833C5B5
Cannot be verified as accurate (confidence 8) [EB0401FC], AccurateRip returned [3D967DE5] (AR v2)
Copy OK

Track 3

Filename F:\MY EAC[.FLAC]\Marisa Monte - Verde Anil Amarelo Cor De Rosa Carvao\03 - Ao Meu Redor.flac

Pre-gap length 0:00:02.62

Peak level 97.7 %
Extraction speed 2.5 X
Track quality 100.0 %
Test CRC 9626E13A
Copy CRC 9626E13A
Cannot be verified as accurate (confidence 10) [53E040D6], AccurateRip returned [E0DE4967] (AR v2)
Copy OK

Track 4

Filename F:\MY EAC[.FLAC]\Marisa Monte - Verde Anil Amarelo Cor De Rosa Carvao\04 - Segue O Seco.flac

Peak level 97.7 %
Extraction speed 2.5 X
Track quality 99.9 %
Test CRC 2A106D8B
Copy CRC 2A106D8B
Cannot be verified as accurate (confidence 8) [1CCFF032], AccurateRip returned [286C57F4] (AR v2)
Copy OK

Track 5

Filename F:\MY EAC[.FLAC]\Marisa Monte - Verde Anil Amarelo Cor De Rosa Carvao\05 - Pale Blue Eyes.flac

Pre-gap length 0:00:00.65

Peak level 96.6 %
Extraction speed 2.8 X
Track quality 100.0 %
Test CRC 3BDB3A06
Copy CRC 3BDB3A06
Cannot be verified as accurate (confidence 8) [8DC8A367], AccurateRip returned [A0735DF6] (AR v2)
Copy OK

Track 6

Filename F:\MY EAC[.FLAC]\Marisa Monte - Verde Anil Amarelo Cor De Rosa Carvao\06 - Dança da Solidão.flac

Pre-gap length 0:00:00.68

Peak level 97.7 %
Extraction speed 2.8 X
Track quality 100.0 %
Test CRC C74415C3
Copy CRC C74415C3
Cannot be verified as accurate (confidence 8) [0D6802F9], AccurateRip returned [83DA519B] (AR v2)
Copy OK

Track 7

Filename F:\MY EAC[.FLAC]\Marisa Monte - Verde Anil Amarelo Cor De Rosa Carvao\07 - De Mais Ninguém.flac

Pre-gap length 0:00:00.15

Peak level 97.7 %
Extraction speed 2.9 X
Track quality 100.0 %
Test CRC C26B826E
Copy CRC C26B826E
Cannot be verified as accurate (confidence 7) [65C04299], AccurateRip returned [EC5DB930] (AR v2)
Copy OK

Track 8

Filename F:\MY EAC[.FLAC]\Marisa Monte - Verde Anil Amarelo Cor De Rosa Carvao\08 - Alta Noite.flac

Pre-gap length 0:00:01.58

Peak level 97.7 %
Extraction speed 3.0 X
Track quality 100.0 %
Test CRC 2149C5DB
Copy CRC 2149C5DB
Cannot be verified as accurate (confidence 7) [B693CB64], AccurateRip returned [BA4F3425] (AR v2)
Copy OK

Track 9

Filename F:\MY EAC[.FLAC]\Marisa Monte - Verde Anil Amarelo Cor De Rosa Carvao\09 - O Céu.flac

Pre-gap length 0:00:00.35

Peak level 97.7 %
Extraction speed 3.0 X
Track quality 100.0 %
Test CRC 9D8F5CCD
Copy CRC 9D8F5CCD
Cannot be verified as accurate (confidence 8) [92F305A2], AccurateRip returned [954F33FB] (AR v2)
Copy OK

Track 10

Filename F:\MY EAC[.FLAC]\Marisa Monte - Verde Anil Amarelo Cor De Rosa Carvao\10 - Bem Leve.flac

Pre-gap length 0:00:00.57

Peak level 97.7 %
Extraction speed 2.9 X
Track quality 100.0 %
Test CRC A195E967
Copy CRC A195E967
Cannot be verified as accurate (confidence 9) [812B8270], AccurateRip returned [726B407A] (AR v2)
Copy OK

Track 11

Filename F:\MY EAC[.FLAC]\Marisa Monte - Verde Anil Amarelo Cor De Rosa Carvao\11 - Balança Pema.flac

Peak level 97.7 %
Extraction speed 3.1 X
Track quality 100.0 %
Test CRC B4F28948
Copy CRC B4F28948
Cannot be verified as accurate (confidence 8) [E0E0E1D3], AccurateRip returned [B40B0D5D] (AR v2)
Copy OK

Track 12

Filename F:\MY EAC[.FLAC]\Marisa Monte - Verde Anil Amarelo Cor De Rosa Carvao\12 - Enquanto Isso.flac

Pre-gap length 0:00:00.20

Peak level 97.7 %
Extraction speed 3.3 X
Track quality 100.0 %
Test CRC 59349E16
Copy CRC 59349E16
Cannot be verified as accurate (confidence 7) [AE1A3AFE], AccurateRip returned [64130EDA] (AR v2)
Copy OK

Track 13

Filename F:\MY EAC[.FLAC]\Marisa Monte - Verde Anil Amarelo Cor De Rosa Carvao\13 - Esta Melodia.flac

Pre-gap length 0:00:01.72

Peak level 97.7 %
Extraction speed 3.3 X
Track quality 99.9 %
Test CRC E7B96F6D
Copy CRC E7B96F6D
Cannot be verified as accurate (confidence 7) [2FF0369C], AccurateRip returned [222025A5] (AR v2)
Copy OK

No errors occurred

End of status report

==== Log checksum 0CB0B0132249A97B882687481768DD2098D9292D1AA6CB16F312E50988B3F53E ====[/quote]

Related torrents

Torrent NameAddedSizeSeedLeechHealth
1 Year+ - in Music122.18 MB00
Verified torrent
1 Year+ - in Music244.11 MB711
1 Year+ - in Music68.69 MB00
1 Year+ - in Other1.3 GB0124
1 Year+ - in Movies1.14 GB00

Comments (0 Comments)




Please login or create a FREE account to post comments

Latest Searches

| Downton Abbey Del 1 av 7 avi | Louisiana Lockdown S01E06 Escape VeroVenlo | stevie b stevie b | The BFG 2016 DVDRip Telugu | social cognition an integrated introduction | Baahubali 2016 | this kiss cover | greatest selena | f in New york | va anniversary edition flac |