Quick Browse
Movies
TV shows
Music
Games
Applications
Anime
Other
Facebook
Advertising

Friends
Torrent Download
Movie4u
1337x.to
Torrent Downloads




Verified torrent Mars Needs Moms 2011 PPVRiP XViD - IMAGiNE


    Seeders : 1      Leechers : 0
Hash :0E7F0F1F4013DE4942060F7D94DEAA33EFA676CD
Added :1 Year+ by memory100Verified torrent uploader in Movies
Size :1.44 GB
Stream :WATCH ONLINE @ Movie4u


Mars Needs Moms 2011 PPVRiP XViD - IMAGiNE
Free and Fast Download with Usenet 300GB+ free







Trackers List

Tracker NameLast CheckStatusSeedersLeechers




Torrent File Content (9 files)


Mars Needs Moms 2011 PPVRiP XViD - IMAGiNE
     Budget seedboxs.txt -
44 bytes

     Mars Needs Moms 2011 PPVRiP XViD - IMAGiNE SAMPLE.avi -
13.92 MB

     Mars Needs Moms 2011 PPVRiP XViD - IMAGiNE.NFO -
4.63 KB

     Mars Needs Moms 2011 PPVRiP XViD - IMAGiNE.avi -
1.43 GB

     NW RG.nfo -
12.96 KB

     Torrent downloaded from Demonoid.me.txt -
46 bytes

     dreamthe.net.txt -
91 bytes

     northernwarriors.net.txt -
135 bytes

     sceneunderground.org.txt -
77 bytes



Description



http://i.imgur.com/asFDe.jpg

[code]
Mars Needs Moms 2011 PPVRiP XViD - IMAGiNE
Ripper ...........: IMAGiNE IMDB Rating.......: 4.1/10
Video Codec.......: XVID Release Date......: 06/06/11
Audio Codec.......: MP3 Theatre Date......: 11/03/11
Audio Bitrate.....: 224 Runtime.......: 1h 58mn
Subtitles.........: NIL Language..........: ENGLISH
Resolution......: 720 x 384 IMDb URL..........: http://www.imdb.com/title/tt1305591/


DETAILS:

Video
ID : 0
Format : MPEG-4 Visual
Format profile : Advanced [email protected]
Format settings, BVOP : 2
Format settings, QPel : No
Format settings, GMC : No warppoints
Format settings, Matrix : Default (MPEG)
Muxing mode : Packed bitstream
Codec ID : XVID
Codec ID/Hint : XviD
Duration : 1h 27mn
Bit rate : 2 097 Kbps
Width : 720 pixels
Height : 386 pixels
Display aspect ratio : 1.865
Frame rate : 29.970 fps
Color space : YUV
Chroma subsampling : 4:2:0
Bit depth : 8 bits
Scan type : Progressive
Compression mode : Lossy
Bits/(Pixel*Frame) : 0.252
Stream size : 1.29 GiB (90%)
Writing library : XviD 61

Audio
ID : 1
Format : MPEG Audio
Format version : Version 1
Format profile : Layer 2
Codec ID : 50
Duration : 1h 27mn
Bit rate mode : Constant
Bit rate : 224 Kbps
Channel(s) : 2 channels
Sampling rate : 48.0 KHz
Compression mode : Lossy
Stream size : 141 MiB (10%)
Alignment : Split accross interleaves
Interleave, duration : 33 ms (1.00 video frame)

Plot:
A young boy named Milo gains a deeper appreciation for his mom after Martians come to Earth to take her away.

SOURCES:
Thanx M8ty

NOTES:
IMAGiNE bringing you another release..........
Mars Needs Moms PPVRiP.............
SO, this time around we have another nice ppv For this one, we made a script to crop and resize,
Sharpened and adjusted the colors abit Audio was then remuxed to our encode.........
Overall a very nice ppvrip here Enjoy Folks!
[/code]
Screens:
http://i.imgur.com/yHJNF.jpg

http://i.imgur.com/ZY5jd.jpg

http://i.imgur.com/ORUOb.jpg

http://i.imgur.com/qU3uX.jpg

http://i.imgur.com/f0pkt.jpg


Related torrents

Torrent NameAddedSizeSeedLeechHealth
1 Year+ - in Movies348.04 MB00
1 Year+ - in Movies1.37 GB00
1 Year+ - in Movies1.38 GB00
1 Year+ - in Movies1.38 GB010
1 Year+ - in Movies1.38 GB00

Comments (0 Comments)




Please login or create a FREE account to post comments

Latest Searches

| Crosby stills young | heartstrikers 3 | cosplay deviants avatar | Begin Again 2013 720p Bluray DTS x264 Worldwide7477 | Crosby stills young | spyro game | pro e engineer v 5 | pussy orgasm xxx | kill me heal me ost part 4 | Incarnates 2016 |