Quick Browse
Movies
TV shows
Music
Games
Applications
Anime
Other
Facebook
Advertising

Friends
Torrent Download
Movie4u
1337x.to
Torrent Downloads




Verified torrent Mars Needs Moms 2011 R5 AC3 XViD-EP1C


    Seeders : 2      Leechers : 260
Hash :B68509548A7CFED9C711CCE68C810E07710499B7
Added :1 Year+ by memory100Verified torrent uploader in Movies
Size :1.39 GB
Stream :WATCH ONLINE @ Movie4u


Mars Needs Moms 2011 R5 AC3 XViD-EP1C
Free and Fast Download with Usenet 300GB+ free







Trackers List

Tracker NameLast CheckStatusSeedersLeechers




Torrent File Content (9 files)


Mars.Needs.Moms.2011.R5.AC3.XViD-EP1C
     Budget seedboxs.txt -
44 bytes

     Mars.Needs.Moms.2011.R5.AC3.XViD-EP1C.avi -
1.37 GB

     Mars.Needs.Moms.2011.R5.AC3.XViD-EP1C.nfo -
3.65 KB

     NW RG.nfo -
12.96 KB

     Sample.avi -
18.56 MB

     Torrent downloaded from Demonoid.me.txt -
46 bytes

     dreamthe.net.txt -
91 bytes

     northernwarriors.net.txt -
135 bytes

     sceneunderground.org.txt -
77 bytes



Description



http://i.imgur.com/34wS1.jpg

[code]
:::::::::::: EP1C Presents ::::::::::::

::File:: Mars.Needs.Moms.2011.R5.AC3.XViD-EP1C

::Video Source:: Tajna.Krasnoj.Planety.2011.D.DVD
::Audio Source:: Tajna.Krasnoj.Planety.2011.D.DVD

::Language:::::: English
::IMDB:::::::::: http://www.imdb.com/title/tt1305591/
A young boy named Milo gains a deeper appreciation for his mom
after Martians come to Earth to take her away.

::Specs:::::::::

Format : AVI
Format/Info : Audio Video Interleave
File size : 1.37 GiB
Duration : 1h 24mn
Overall bit rate : 2 321 Kbps
Writing application : VirtualDubMod 1.5.10.2 (build 2540/release)
Writing library : VirtualDubMod build 2540/release

Video
ID : 0
Format : MPEG-4 Visual
Format profile : Advanced [email protected]
Format settings, BVOP : Yes
Format settings, QPel : No
Format settings, GMC : No warppoints
Format settings, Matrix : Default (MPEG)
Muxing mode : Packed bitstream
Codec ID : XVID
Codec ID/Hint : XviD
Duration : 1h 24mn
Bit rate : 1 927 Kbps
Width : 720 pixels
Height : 288 pixels
Display aspect ratio : 2.500
Frame rate : 25.000 fps
Color space : YUV
Chroma subsampling : 4:2:0
Bit depth : 8 bits
Scan type : Progressive
Bits/(Pixel*Frame) : 0.372
Stream size : 1.14 GiB (83%)
Writing library : XviD 58

Audio
ID : 1
Format : AC-3
Format/Info : Audio Coding 3
Mode extension : CM (complete main)
Codec ID : 2000
Duration : 1h 24mn
Bit rate mode : Constant
Bit rate : 384 Kbps
Channel(s) : 6 channels
Channel positions : Front: L C R, Side: L R, LFE
Sampling rate : 48.0 KHz
Bit depth : 16 bits
Stream size : 232 MiB (17%)
Alignment : Split accross interleaves
Interleave, duration : 40 ms (1.00 video frame)
Interleave, preload duration : 500 ms

::NOTES:::::::::
Presenting the first R5, Mars Needs Moms.
Enjoy //EP1C
[/code]
Screens:
http://i.imgur.com/xLmsi.png

http://i.imgur.com/Cm0GR.png

http://i.imgur.com/wfsVJ.png

http://i.imgur.com/spqNK.png

http://i.imgur.com/NkNMg.png

Related torrents

Torrent NameAddedSizeSeedLeechHealth
1 Year+ - in Movies1.39 GB638
1 Year+ - in Movies1.39 GB03
1 Year+ - in Movies1.39 GB03
1 Good
Verified torrent
1 Year+ - in Movies1.39 GB00
1 Year+ - in Movies1.25 GB00

Comments (0 Comments)




Please login or create a FREE account to post comments

Latest Searches

| prezi 6 16 2 | glazuur jonkman | living systems | yu gi oh legacy of the duelist | Yuck 2 chainz | 80s rock | Yuck | CHANEL PRESTON ZZINCS CORPORATE ORIFICE | Cum Thirsty Cougars | sweeny todd barber of fleet |