Quick Browse
Movies
TV shows
Music
Games
Applications
Anime
Other
Facebook
Advertising

Friends
Torrent Download
Movie4u
1337x.to
Torrent Downloads




Verified torrent Mega Python vs. Gatoroid 2011 BRRip 720p x264 AAC-MXMG


    Seeders : 2      Leechers : 0
Hash :9206169A3D89C7A3DB29ABD507F2D19D37746A1C
Added :1 Year+ by MXMGVerified torrent uploader in Movies
Size :2.21 GB
Stream :WATCH ONLINE @ Movie4u


Mega Python vs. Gatoroid 2011 BRRip 720p x264 AAC-MXMG
Free and Fast Download with Usenet 300GB+ free







Trackers List

Tracker NameLast CheckStatusSeedersLeechers




Torrent File Content (11 files)


Mega Python vs. Gatoroid 2011 BRRip 720p x264 AAC-MXMG
    Subs
          Arabic.srt -
97.34 KB

          French.srt -
82.83 KB

          German.srt -
81.68 KB

          Dutch.srt -
79.52 KB

          Spanish.srt -
78.77 KB

          Chinese.srt -
77.96 KB

          English.srt -
77.59 KB

     Mega Python vs. Gatoroid.mp4 -
2.18 GB

     Sample.m4v -
24.62 MB

     Torrent downloaded from Demonoid.me.txt -
46 bytes

     Torrent downloaded from Silvertorrents.me.txt -
41 bytes



Description



http://img215.imageshack.us/img215/119/1575625h.jpg



[code]iMDB................................: http://www.imdb.com/title/tt1680138/

Plot :
There's a crisis in the Florida Everglades as giant pythons are threatening the alligator population.

Cast :

Deborah Gibson ... Dr. Nikki Riley
Tiffany ... Terry O'Hara
A Martinez ... Dr. Diego Ortiz
Kathryn Joosten ... Angie
Kevin M. Horton ... RJ Cupelli
Carey Van Dyke ... Justin






General
Format : MPEG-4
Format profile : Base Media
File size : 2.18 GiB
Duration : 1h 30mn
Overall bit rate : 3 435 Kbps


Video
Format : AVC
Format/Info : Advanced Video Codec
Format profile : [email protected]
Format settings, CABAC : Yes
Format settings, ReFrames : 5 frames
Codec ID/Info : Advanced Video Coding
Duration : 1h 30mn
Bit rate mode : Variable
Bit rate : 3 113 Kbps
Maximum bit rate : 24.0 Mbps
Width : 1 280 pixels
Height : 720 pixels
Display aspect ratio : 16:9
Frame rate mode : Constant
Frame rate : 23.976 fps
Color space : YUV
Chroma subsampling : 4:2:0
Bit depth : 8 bits
Scan type : Progressive
Bits/(Pixel*Frame) : 0.141
Stream size : 1.97 GiB (90%)
Writing library : x264 core 115 r1995 c1e60b9


Audio
Format : AAC
Format/Info : Advanced Audio Codec
Duration : 1h 30mn
Bit rate mode : Variable
Bit rate : 326 Kbps
Maximum bit rate : 391 Kbps
Channel(s) : 6 channels
Channel positions : Front: L C R, Side: L R, LFE
Sampling rate : 48.0 KHz
Compression mode : Lossy
Stream size : 212 MiB (9%)
Language : English



Subtitles : English/Arabic/Chinese/Dutch/French/German/Spanish
Source : 720p-HD4U
Sample : Included
[/code]


http://img846.imageshack.us/img846/8688/screenshot2011062214h42.png

http://img600.imageshack.us/img600/3200/screenshot2011062214h44.png

http://img51.imageshack.us/img51/8688/screenshot2011062214h42.png

http://img41.imageshack.us/img41/3738/screenshot2011062214h43.png

http://img860.imageshack.us/img860/3738/screenshot2011062214h43.png



[code]Trackers :
http://inferno.demonoid.me:3395/announce
http://fr33dom.h33t.com:3310/announce
http://nemesis.1337x.org/announce
http://exodus.1337x.org:80/announce
http://genesis.1337x.org:1337/announce
[/code]


[code]
Feel free to visit and select your range and suite of seedboxes and hosting plans.
Recomended by MXMG as these servers seed for your Dowloading @ 25MB/s and Higher...
http://www.chociz.com/

^COMPATiBLE MODES.......: XBOX-360/PSP/PS3/WDTV/PC

FiND THE GENUiNE MXMG RELEASES @ TORRENTSTATE
HiGHEST QUALiTY iN COMFORTABLE SiZE ...
[/code]

Related torrents

Torrent NameAddedSizeSeedLeechHealth
1 Year+ - in Movies2.52 GB00
1 Year+ - in Movies2.49 GB00
1 Year+ - in Movies1.38 GB00
Verified torrent
1 Year+ - in Movies1.38 GB00
1 Year+ - in Movies805.76 MB940

Comments (0 Comments)




Please login or create a FREE account to post comments

Latest Searches

| DNCEs | FAKings 16 09 14 Paulova Turquesa SPANISH 720p MP4 KTR | suno | S04E09 The Goldbergs | Metal Gear Solid V The Phantom Pain 2016 | sony dvd studio 6 | Dirty Talkin Stepdaughters 4 2016 DVDRIP MP4 | Guddu Rangeela 2015 Hindi 720p DVDRiP x264 ShAaNiG | the bill hodges | S05E09 Arrow |