Quick Browse
Movies
TV shows
Music
Games
Applications
Anime
Other

Donate and Support

Friends
Torrents.me
Torrent Download
Free Movies
1337x
RARBG
Torrent Downloads

Milenge Milenge 2009 Trailer DvDRip AVI AC3 xRG HINDI MOVIE


    Seeders : 0      Leechers : 0
Hash :898A42973C7B79B7448EDD15A61E7264D3CE7831
Added :1 Year+ in Movies
Size :23.58 MB
Stream :Watch Full Movies Online @ Movie4u
Share :


Milenge Milenge 2009 Trailer DvDRip AVI AC3 xRG HINDI MOVIE
Anonymous and Direct Download 300GB+ free







Warning! Do not Download Torrents Without a VPN!
Your IP Address is .   And Location is
Your Internet Provider and Government can track your torrent Activity!  Hide your IP ADDRESS with a VPN!
We Strongly Recommend Using SpyOFF Torrent VPN to Anonymize your Torrenting. It's FREE For 15 Days!

Note :

Please Update (Trackers Info) Before Downloading Torrents to See Updated Seeders And Leechers for Batter Download Speed.

Trackers List

Tracker NameLast CheckStatusSeedersLeechers




Torrent File Content (1 file)


     Milenge Milenge 2009_Trailer_DvDRip_AVI_AC3_xRG.avi -
23.58 MB



Description



Milenge Milenge 2009 Trailer DvDRip AVI AC3 xRG HINDI MOVIE 


info

Format : AVI
Format/Info : Audio Video Interleave
Format profile : OpenDML
File size : 23.6 MiB
Duration : 1mn 44s
Overall bit rate : 1 887 Kbps
Writing application : AVI-Mux GUI 1.17.7, Aug 8 2006 20:59:17

Video
ID : 0
Format : MPEG-4 Visual
Format profile : AdvancedSimple@L5
Format settings, BVOP : Yes
Format settings, QPel : Yes
Format settings, GMC : No warppoints
Format settings, Matrix : Default (H.263)
Codec ID : XVID
Codec ID/Hint : XviD
Duration : 1mn 44s
Bit rate : 1 430 Kbps
Width : 720 pixels
Height : 304 pixels
Display aspect ratio : 2.35:1
Frame rate : 23.976 fps
Resolution : 24 bits
Colorimetry : 4:2:0
Scan type : Progressive
Bits/(Pixel*Frame) : 0.272
Stream size : 17.9 MiB (76%)
Writing library : XviD 1.2.1 (UTC 2008-12-04)

Audio
ID : 1
Format : AC-3
Format/Info : Audio Coding 3
Codec ID : 2000
Duration : 1mn 44s
Bit rate mode : Constant
Bit rate : 448 Kbps
Channel(s) : 6 channels
Channel positions : Front: L C R, Surround: L R, LFE
Sampling rate : 48.0 KHz
Stream size : 5.58 MiB (24%)
Alignment : Aligned on interleaves
Interleave, duration : 64 ms (1.54 video frames)
Interleave, preload duration : 192 ms
Title : 123 T80 3_2ch 448Kbps DELAY -233ms



screenshot

http://i36.tinypic.com/fozo6d.jpg

http://i33.tinypic.com/msdjch.jpg

http://i35.tinypic.com/2a7akqr.jpg

http://i38.tinypic.com/4lmr.jpg

http://i38.tinypic.com/345ebyd.jpg


pls seed after downloading...........

Related torrents

Torrent NameAddedSizeSeedLeechHealth
1 Year+ - in Music23.94 MB00
1 Year+ - in Music11.27 MB00
1 Year+ - in Music13.85 MB00
1 Year+ - in Music13.47 MB12
1 Year+ - in Movies16.26 MB04

Comments (0 Comments)




Please login or create a FREE account to post comments

Latest Searches

| Kimberly Brix I m Horny My BF Won t Fuck Me | conjugal stepmother julia ann | made in the am one direction | Pre Go | PARTYNEXTDOOR nice | Krush Groove | web design exe | one day women | Adobe Photoshop Lightroom CC 2015 10 6 10 Rus | PixAndVideo Cayla Lyons |