Quick Browse
Movies
TV shows
Music
Games
Applications
Anime
Other
Facebook
Advertising

Friends
Torrent Download
Movie4u
1337x.to
Torrent Downloads




Minor Mishaps - Danish Movie - 2002 - TVRip - WS - XViD-Greekadiko.biz Release - English Subtitles


    Seeders : 1      Leechers : 0

Trackers List

Tracker NameLast CheckStatusSeedersLeechers




Torrent File Content (5 files)


Minor Mishaps
     Minor Mishaps.avi -
676.69 MB

     minormishaps.jpg -
93.17 KB

     Minor Mishaps.jpg -
34.19 KB

     Minor Mishaps_1.jpg -
23.78 KB

     Minor Mishaps_2.jpg -
20.79 KB



Description



General
Complete name : D:DVDsMinor MishapsMinor Mishaps.avi
Format : AVI
Format/Info : Audio Video Interleave
File size : 677 MiB
Duration : 1h 44mn
Overall bit rate : 904 Kbps
Writing application : VirtualDubMod 1.5.4.1 (build 2178/release)
Writing library : VirtualDubMod build 2178/release

Video
ID : 0
Format : MPEG-4 Visual
Format profile : Streaming [email protected]
Format settings, BVOP : Yes
Format settings, QPel : No
Format settings, GMC : No warppoints
Format settings, Matrix : Default (H.263)
Muxing mode : Packed bitstream
Codec ID : XVID
Codec ID/Hint : XviD
Duration : 1h 44mn
Bit rate : 786 Kbps
Width : 720 pixels
Height : 352 pixels
Display aspect ratio : 2.045
Frame rate : 29.970 fps
Resolution : 24 bits
Colorimetry : 4:2:0
Scan type : Progressive
Bits/(Pixel*Frame) : 0.103
Stream size : 588 MiB (87%)
Writing library : XviD 1.2.1 (UTC 2008-12-04)

Audio
ID : 1
Format : MPEG Audio
Format version : Version 1
Format profile : Layer 3
Codec ID : 55
Codec ID/Hint : MP3
Duration : 1h 44mn
Bit rate mode : Variable
Bit rate : 105 Kbps
Nominal bit rate : 128 Kbps
Channel(s) : 2 channels
Sampling rate : 48.0 KHz
Resolution : 16 bits
Stream size : 78.3 MiB (12%)
Alignment : Aligned on interleaves
Interleave, duration : 24 ms (0.72 video frame)
Interleave, preload duration : 541 ms
Writing library : LAME3.98r
Encoding settings : -m j -V 4 -q 2 -lowpass 17 --abr 128

Related torrents

Torrent NameAddedSizeSeedLeechHealth
1 Year+ - in Movies707.3 MB00
1 Year+ - in Movies710.01 MB00
1 Year+ - in Movies699.68 MB21
1 Year+ - in Movies739.46 MB11
1 Year+ - in Movies642.17 MB10

Comments (0 Comments)




Please login or create a FREE account to post comments

Latest Searches

| 80s rock | Yuck | CHANEL PRESTON ZZINCS CORPORATE ORIFICE | Cum Thirsty Cougars | sweeny todd barber of fleet | 4 week training | The nine laws | Magma Extrem In den Fangen von Perversen | Cyberwar S01E14 | What on Earth S03E05 |