Quick Browse
Movies
TV shows
Music
Games
Applications
Anime
Other
Facebook
Advertising

Friends
Torrent Download
Movie4u
1337x.to
Torrent Downloads




Verified torrent Minority Report 2002 HD Hindi~3385VKSH


    Seeders : 0      Leechers : 0
Hash :75EA0C2E1647FB2EA9083D297056D7B1B51E6305
Added :1 Year+ by VKS3385Verified torrent uploader in Movies
Size :688.52 MB
Stream :WATCH ONLINE @ Movie4u


Minority Report 2002 HD Hindi~3385VKSH
Free and Fast Download with Usenet 300GB+ free







Trackers List

Tracker NameLast CheckStatusSeedersLeechers




Torrent File Content (2 files)


Minority Report 2002 HD Hindi
     Minority Report 2002 HD Hindi .mkv -
683.2 MB

     Sample.mkv -
5.32 MB



Description



http://img340.imageshack.us/img340/1050/hddesirockers.png

http://img62.imageshack.us/img62/5382/roadsignphp.png


http://img713.imageshack.us/img713/2464/minorityreport2002.jpg


http://img836.imageshack.us/img836/3343/25ic0hd1.png


http://img294.imageshack.us/img294/2904/minorityreport011024.jpg


In the year 2054 A.D. crime is virtually eliminated from Washington D.C. thanks to an elite law enforcing squad "Precrime". They use three genetically altered humans (called "Pre-Cogs") with special powers to see into the future and predict crimes beforehand. John Anderton heads Precrime and believes the system's flawlessness steadfastly. However one day the Pre-Cogs predict that Anderton will commit a murder himself in the next 36 hours. Worse, Anderton doesn't even know the victim. He decides to get to the mystery's core by finding out the 'minority report' which means the prediction of the female Pre-Cog Agatha that "might" tell a different story and prove Anderton innocent.

http://img714.imageshack.us/img714/4783/9k1gty1.png

Tom Cruise ... Chief John Anderton
Max von Sydow ... Director Lamar Burgess
Steve Harris ... Jad
Neal McDonough ... Fletcher
Patrick Kilpatrick ... Knott
Jessica Capshaw ... Evanna
Richard Coca ... Pre-Crime Cop
Keith Campbell ... Pre-Crime Cop
Kirk B.R. Woller ... Pre-Crime Cop
Klea Scott ... Pre-Crime Cop
Frank Grillo ... Pre-Crime Cop
Anna Maria Horsford ... Casey
Sarah Simmons ... Lamar Burgess' Secretary
Eugene Osment ... Jad's Technician
James Henderson ... Office Worker


http://i50.tinypic.com/zvbzx2.jpg


General
Complete name : Minority Report 2002 HD Hindi~3385VKSH
Format : Matroska
File size : 683 MiB
Duration : 2h 1mn
Overall bit rate : 787 Kbps
Movie name : Minority.Report.2002.720p.BDRip.AC3.x264-AdiT
Encoded date : UTC 2010-10-11 15:47:07
Writing application : mkvmerge v4.2.0 ('No Talking') built on Jul 28 2010 18:38:23
Writing library : libebml v1.0.0 + libmatroska v1.0.0


http://img412.imageshack.us/img412/7057/imdb3.png

[size=3][url]http://www.imdb.com/title/tt0181689/[/url][/size]

http://img37.imageshack.us/img37/7218/vlcfile.png

Video
ID : 1
Format : AVC
Format/Info : Advanced Video Codec
Format profile : [email protected]
Format settings, CABAC : Yes
Format settings, ReFrames : 8 frames
Muxing mode : Container [email protected]
Codec ID : V_MPEG4/ISO/AVC
Duration : 2h 1mn
Bit rate : 648 Kbps
Width : 960 pixels
Height : 400 pixels
Display aspect ratio : 2.40:1
Frame rate : 23.976 fps
Color space : YUV
Chroma subsampling : 4:2:0
Bit depth : 8 bits
Scan type : Progressive
Bits/(Pixel*Frame) : 0.070
Stream size : 558 MiB (82%)
Writing library : x264 core 80 r1376M 3feaec2


http://img248.imageshack.us/img248/6613/musicfile1.png

Audio
ID : 2
Format : MPEG Audio
Format version : Version 1
Format profile : Layer 3
Mode : Joint stereo
Mode extension : MS Stereo
Codec ID : A_MPEG/L3
Codec ID/Hint : MP3
Duration : 2h 1mn
Bit rate mode : Constant
Bit rate : 128 Kbps
Channel(s) : 2 channels
Sampling rate : 44.1 KHz
Video delay : 22s 806ms
Stream size : 111 MiB (16%)
Writing library : LAME3.98
Language : Hindi


http://i50.tinypic.com/2qtwdv8.jpg


http://img52.imageshack.us/img52/3265/167jluv.png


http://img89.imageshack.us/img89/235/iemq6d.png


http://img143.imageshack.us/img143/3358/oqbz1t.png


http://img716.imageshack.us/img716/2852/1zceb60.png



[SIZE=5]Sample Included in the Torrent[/SIZE]

http://i49.tinypic.com/zoap2a.jpg


http://img690.imageshack.us/img690/2538/2s9d1cg.gif

http://i49.tinypic.com/28v8wmr.jpg


http://img205.imageshack.us/img205/91/15880378.png

http://img695.imageshack.us/img695/7097/6sdez7.gif

Related torrents

Torrent NameAddedSizeSeedLeechHealth
1 Year+ - in Movies690.96 MB14
Last Month - in Movies2 GB00
Last Month - in Movies3.03 GB00
4 months ago - in Movies1.1 GB00
8 months ago - in Other3.51 GB00

Comments (0 Comments)




Please login or create a FREE account to post comments

Latest Searches

| Mary Mary the morning | Paste My Face 11 2008 DVDRip | I Dont Wanna Live | r3hab ft nervo revolution | Carol zip | rose alleen | suicide squad 2016 extras | The Big Food Rescue Series | xxx porn full | NEW hindi dubbed 2016 |