Quick Browse
Movies
TV shows
Music
Games
Applications
Anime
Other
Facebook
Advertising

Friends
Torrent Download
Movie4u
1337x.to
Torrent Downloads




Verified torrent Mirrors [2008-2010] Duology DVDRiP XViD AC3-LEGi0N


    Seeders : 1      Leechers : 1
Hash :5B242C70F026E301E7D214458A2519EF2707AD6D
Added :1 Year+ by striker123Verified torrent uploader in Movies
Size :2.79 GB
Stream :WATCH ONLINE @ Movie4u


Mirrors [2008-2010] Duology DVDRiP XViD AC3-LEGi0N
Free and Fast Download with Usenet 300GB+ free







Trackers List

Tracker NameLast CheckStatusSeedersLeechers




Torrent File Content (5 files)


Mirrors [2008-2010] Duology DVDRiP XViD AC3-LEGi0N
     Mirrors 2 UNRATED 2010 DVDRiP XViD AC3-LEGi0N.avi -
1.37 GB

     Mirrors UNRATED 2008 DVDRiP XViD AC3-LEGi0N.avi -
1.37 GB

     Mirrors SAMPLE.avi -
33.43 MB

     Mirrors 2 SAMPLE.avi -
20.3 MB

     thedesiadda.com -
0 bytes



Description



http://www.leetleech.org/images/14824769810399783569.png


Mirrors [2008-2010] Duology DVDRiP XViD AC3-LEGi0N




[color=red]General[/color]
Format: AVI
File size: ToTal : 2.78 GiB Mirrors : 1.37 GiB - Mirrors 2 : 1.37 GiB
Duration:............................: 1h 51mn : 1h 30mn
Overall bit rate :...................: 1 757 Kbps : 2 175 Kbps
Source: .............................: Mirrors (DVDR-VoMiT Thanks!!)
Source:..............................: Mirrors 2 (DVDR-KART3LDVD Thanks!!)



http://leetleech.org/images/48874973695367351744.png

[size=3][color=red]Mirrors UNRATED 2008 DVDRiP XViD AC3-LEGi0N[/size][/color]

IMDb Rating: 6.1/10
Genre: Action | Adventure | Comedy | Thriller
Release: 15 August 2008 (USA)
IMDb Link: [url]http://www.imdb.com/title/tt0790686/[/url]
Trailer: [url]http://www.imdb.com/video/imdb/vi1518141721/[/url]
Subs: N/A
Encoded By : TH0RN

[color=red]Video[/color]
Format: MPEG-4 Visual
Format profile: Advanced [email protected]
Format settings, BVOP: Yes
Format settings, QPel: No
Format settings, GMC : No warppoints
Muxing mode: Packed bitstream
Codec ID: XVID
Bit rate: 1 304 Kbps
Width: 720 pixels
Height: 384 pixels
Display aspect ratio: 1.875
Frame rate: 23.976 fps
Chroma subsampling: 4:2:0
Bit depth: 24 bits
Scan type: Progressive
Bits/(Pixel*Frame): 0.197
Stream size: 1.01 GiB (74%)

[color=red]Audio[/color]
Format: AC3
Bit rate mode: Constant
Bit rate: 448 Kbps
Channel(s): 6 channels
Sampling rate: 48.0 KHz
Stream size: 357 MiB (25%)

http://leetleech.org/images/89524873606771859129.png

An ex-cop and his family are the target of an evil force
that is using mirrors as a gateway into their home.

[color=red]Tagline:[/color]
N/A

http://leetleech.org/images/84434050717770922575.png

Kiefer Sutherland ... Ben Carson
Paula Patton ... Amy Carson
Cameron Boyce ... Michael Carson
Erica Gluck ... Daisy Carson
Amy Smart ... Angela Carson
Mary Beth Peil ... Anna Esseker
John Shrapnel ... Lorenzo Sapelli
Jason Flemyng ... Det. Larry Byrne
Tim Ahern ... Dr. Morris
Julian Glover ... Robert Esseker




http://leetleech.org/images/48874973695367351744.png

[size=3][color=red]Mirrors 2 UNRATED 2010 DVDRiP XViD AC3-LEGi0N[/color][/size]

IMDb Rating: 4.8/10
Genre: Horror | Mystery | Thriller
Release: 19 October 2010 (USA)
IMDb Link: [url]http://www.imdb.com/title/tt1576699/[/url]
Trailer: [url]http://www.imdb.com/video/screenplay/vi2044594457/[/url]
Subs: N/A
Encoded By : HiTM4N

[color=red]Video[/color]
Format: MPEG-4 Visual
Format profile: Advanced [email protected]
Format settings, BVOP: Yes
Format settings, QPel: No
Format settings, GMC : No warppoints
Muxing mode: Packed bitstream
Codec ID: XVID
Bit rate: 1 717 Kbps
Width: 720 pixels
Height: 400 pixels
Display aspect ratio: 16:9
Frame rate: 23.976 fps
Chroma subsampling: 4:2:0
Bit depth: 24 bits
Scan type: Progressive
Bits/(Pixel*Frame): 0.249
Stream size: 1.08 GiB

[color=red]Audio[/color]
Format: AC3
Bit rate mode: Constant
Bit rate: 448 Kbps
Channel(s): 6 channels
Sampling rate: 48.0 KHz
Stream size: 289 MiB

http://leetleech.org/images/89524873606771859129.png

When Max, who is recovering from a traumatic accident,
takes a job as a nighttime security guard, he begins to
see visions of a young mysterious woman in the store's Mirror.

[color=red]Tagline:[/color]
N/A

http://leetleech.org/images/84434050717770922575.png

Nick Stahl ... Max Matheson
Emmanuelle Vaugier ... Elizabeth Reigns (as Emmanuelle Vaugiér)
Evan Jones ... Henry Schow
Christy Carlson Romano ... Jenna McCarty (as Christy Romano)
William Katt ... Jack Matheson
Lawrence Turner ... Keller Landreaux
Stephanie Honore ... Eleanor Reigns (as Stephanie Honoré Sanchez)
Jon Michael Davis ... Ryan Parker
Wayne Pére ... Detective Piccirilli (as Wayne Péré)
Lance E. Nichols ... Detective Huston

[color=red]GREETZ[/color]
Noir | Joshua08 | DiLLoN | HiTM4N | BMB |

bigimac | HiVE-CM8 | CLASSiFiED |

Lungbuster | skillz | ELEKTRI4KA |

FLAWL3SS | IMAGiNE | THC | CRYS | iNK |

AND ALL AFFILIATED SITES


[color=red]SAMPLE'S INCLUDED![/color]

http://leetleech.org/images/95521316153253938506.png


[color=red]Mirrors[/color]
http://www.leetleech.org/images/62042621472221343973.png

http://www.leetleech.org/images/17798899775534267871.png

http://www.leetleech.org/images/52663958449897109050.png

http://www.leetleech.org/images/08821791888244632666.png

http://www.leetleech.org/images/15650189968878630197.png

http://www.leetleech.org/images/37928652826870836058.png


[color=red]Mirrors 2[/color]
http://img513.imageshack.us/img513/2600/vlcsnap2010102117h53m35.png

http://img97.imageshack.us/img97/1968/vlcsnap2010102117h54m05.png

http://img6.imageshack.us/img6/8318/vlcsnap2010102117h54m35.png

http://img714.imageshack.us/img714/4246/vlcsnap2010102117h52m57.png

http://img145.imageshack.us/img145/920/vlcsnap2010102117h54m48.png

http://img2.imageshack.us/img2/6604/vlcsnap2010102117h53m21.png


http://leetleech.org/images/12755021538703799215.png

Related torrents

Torrent NameAddedSizeSeedLeechHealth
1 Year+ - in Movies5.64 GB214
1 Year+ - in Movies2.21 GB11950
1 Year+ - in Movies710.38 MB232
1 Year+ - in Movies19.76 GB5970
1 Year+ - in Movies2.41 GB00

Comments (0 Comments)




Please login or create a FREE account to post comments

Latest Searches

| uncle murda future right now | porn drugs | accidence happen | jordan snare | Designated Survivor S01E09 720p HDTV x264 KILLERS | the abbey grange | J Cole Role Model | blake feat | Empire 2015 S03E08 720p HDTV x264 AVS | mompov tied for oldest on |