Quick Browse
Movies
TV shows
Music
Games
Applications
Anime
Other

Latest Articles

Friends
Torrents.me
Torrent Download
Free Movies
1337x
RARBG
Torrent Downloads

Verified torrent Misfits S03E07-08 HDTV XviD-Eng Sub_Ita-[IDN_CREW]


    Seeders : 0      Leechers : 0

Hash :4FD2CF1B37BDD584F2D89D002BAEADBFAD56F3E8
Added :1 Year+ by manny02Verified torrent uploader in TV shows
Size :896.56 MB
Stream :Watch Online Full Movie @ Movie4u
Share :









Warning! Do not Download Torrents Without a VPN!
Your IP Address is .   And Location is
Your Internet Provider and Government can track your torrent Activity!  Hide your IP ADDRESS with a VPN!
We Strongly Recommend Using SpyOFF Torrent VPN to Anonymize your Torrenting. It's FREE for 15 Days!

Note :

Please Update (Trackers Info) Before Downloading Torrents to See Updated Seeders And Leechers for Batter Download Speed.

Trackers List

Tracker NameLast CheckStatusSeedersLeechers




Torrent File Content (3 files)


Misfits.S03E07-08.HDTV.XviD-Eng.Sub_Ita-[IDN_CREW]
     IDN_CREW Leggimi.txt -
294 bytes

     Misfits.S03E07.HDTV.XviD-Eng.Sub_Ita-[IDN_CREW].avi -
546.79 MB

     Misfits.S03E08.HDTV.XviD-Eng.Sub_Ita-[IDN_CREW].avi -
349.78 MB



Description



http://img849.imageshack.us/img849/1304/misfits3.jpg


[color=red]Misfits – Stagione 3 [/color]
HDTv Eng Mp3 Sub Ita

http://img514.imageshack.us/img514/1502/inforelease.png


[color=red]Titolo:[/color] Misfits
[color=red]Anno: [/color]2011
[color=red]Nazionalità: [/color]Regno Unito
[color=red]Genere:[/color] fantascienza, umorismo nero, teen drama
[color=red]Lingua:[/color] Inglese
[color=red]Stagione:[/color] 3
[color=red]Episodi:[/color] 8
[color=red]Durata Episodio:[/color] 45-48 min ca (episodio)
[color=red]Ideatore:[/color] Howard Overman
[color=red]Produzione:[/color] Clerkenwell Films
[color=red]Distribuzione:[/color] E4
[color=red]Fonti:[/color] http://it.wikipedia.org/wiki/Misfits_%28serie_televisiva%29
www.badtv.it
[/color]

http://img685.imageshack.us/img685/5835/casta.png


http://www.badtv.it/wp-content/uploads/2011/10/misfits-benj_A2.jpg


[color=blue]
Joseph Gilgun: Rudy
Iwan Rheon: Simon Bellamy
Lauren Socha: Kelly Bailey
Nathan Stewart-Jarrett: Curtis Donovan
Antonia Thomas: Alisha Bailey [/color]

http://img153.imageshack.us/img153/7608/tramao.png


[color=blue]Costretto anche lui ai servizi sociali, il nuovo ragazzo del gruppo Rudy capisce in fretta di non essere stato l’unico a ritrovarsi nella tempesta – non è l’unico ad avere superpoteri. Ma come sempre, nel mondo di Misfits, troverà anche un mucchio di problemi da superpoteri…

Nel frattempo il resto della gang sta cercando di adattarsi alla vita con i nuovi superpoteri. Ma come è andato l’accordo con Seth, lo “spacciatore” di poteri? Con gli zombie alle costole, scambi di corpi e cacce di fantasmi del passato – oltre a Simon che cerca di avverare il suo destino e diventare Superhoodie, le acque non si sono calmate molto. [/color


http://img864.imageshack.us/img864/7976/episodi.png


3x01
3x02
3x03
3x04
3x05
3x06
3x07
3x08

http://img190.imageshack.us/img190/7663/recension.png


[color=blue] E tornano i nostri disadattati, ma purtroppo non tutti. "Nathan", oramai si sa non sarà più tra loro e i produttori per spiegare, nella storia il motivo della sua non presenza, hanno creato un webisode, che potete trovare qui....I produttori spiegano che, l'uscita di Nathan e l'arrivo del nuovo personaggio "Rudy" lascia modo di ampliare il ruolo degli altri personaggi, Simon e Alisha, che innamorati avranno non pochi problemi passati e futuri per vivere la loro storia d'amore, Curtis cambierà molto e Rudy avrà moltissimi problemi con i suoi poteri. Su kelly, nessuna indiscrezione. Ci saranno tante e nuove storyline che ruotano intorno ai "misfits" con parecchi morti!!
[/color]

http://img529.imageshack.us/img529/7286/datifile.png


Programma usato: AVIRecomp

Sottotitoli impressi a video

General
Complete name : Misfits.S03E08.HDTV.XviD-Eng.Sub_Ita-[IDN_CREW].avi
Format : AVI
Format/Info : Audio Video Interleave
File size : 350 MiB
Duration : 45mn 52s
Overall bit rate : 1 066 Kbps

Video
Format : MPEG-4 Visual
Format profile : Streaming [email protected]
Format settings, BVOP : Yes
Format settings, QPel : No
Format settings, GMC : No warppoints
Format settings, Matrix : Default
Codec ID : XVID
Codec ID/Hint : XviD
Duration : 45mn 52s
Bit rate : 931 Kbps
Width : 624 pixels
Height : 352 pixels
Display aspect ratio : 16/9
Frame rate : 25.000 fps
Resolution : 24 bits
Colorimetry : 4:2:0
Scan type : Progressive
Bits/(Pixel*Frame) : 0.170
Stream size : 305 MiB (87%)
Writing library : XviD 62

Audio
Format : MPEG Audio
Format version : Version 1
Format profile : Layer 3
Codec ID : 55
Codec ID/Hint : MP3
Duration : 45mn 52s
Bit rate mode : Variable
Bit rate : 122 Kbps
Minimum bit rate : 128 Kbps
Channel(s) : 2 channels
Sampling rate : 48.0 KHz
Resolution : 16 bits
Stream size : 40.0 MiB (11%)
Alignment : Aligned on interleaves
Interleave, duration : 24 ms (0.60 video frame)
Interleave, preload duration : 522 ms
Writing library : LAME3.98r
Encoding settings : ABR


http://img20.imageshack.us/img20/4974/screenshotsph.png


http://img233.imageshack.us/img233/8771/misfits3screen.jpg


Ringraziamenti: Per i Sottotitoli ad Itasa

Related torrents

Torrent NameAddedSizeSeedLeechHealth
1 Year+ - in TV shows425.68 MB02
1 Year+ - in TV shows340 MB10
1 Year+ - in TV shows340 MB10
1 Year+ - in TV shows338.99 MB12
1 Year+ - in TV shows358.09 MB10
1 Year+ - in TV shows723.11 MB00

Note :

Feel free to post any comments about this torrent, including links to Subtitle, samples, screenshots, or any other relevant information. Please Dont Download anything from Comments, And Dont Post Links to Streaming Sites like Fmovies, Xmovies8, 123Movies, GoMovies, CMovieshd, Solarmovie, Watchfree, Putlockers, GoStream, m4ufree etc.

Comments (0 Comments)




Please login or create a FREE account to post comments

Latest Searches

| double anal penetration | passionate romance and fantasy 2017 | Redemption | WWF SmackDown 2 Know Your Role | Mr Robot S03E08 | malayalam njandukalude | 17 12 6 | Wwe 2017 12 11 | 90 Day Fiance S06E10 Breaking Point 720p HDTV x264 CRiMSON | Blacked Kylie Page Hadley Viscara |