Quick Browse
Movies
TV shows
Music
Games
Applications
Anime
Other
Facebook
Advertising

Friends
Torrent Download
Movie4u
1337x.to
Torrent Downloads




Verified torrent Misfits Vegas Baby Webrip Eng+Sub_Ita-[IDN_CREW]


    Seeders : 0      Leechers : 0
Hash :093AA4B71BDC59697D483586720B2050C8A920F8
Added :1 Year+ by manny02Verified torrent uploader in Other - Other
Size :61.3 MB
Stream :WATCH ONLINE @ Movie4u


Misfits Vegas Baby Webrip Eng+Sub_Ita-[IDN_CREW]
Free and Fast Download with Usenet 300GB+ free







Trackers List

Tracker NameLast CheckStatusSeedersLeechers




Torrent File Content (2 files)


Misfits.Vegas.Baby.Webrip.Eng+Sub_Ita-[IDN_CREW]
     Misfits.Webepisode.sub.ita.subsfactory.srt.srt -
7.45 KB

     Misfits_Vegas_Baby-117.avi -
61.29 MB



Description



http://img827.imageshack.us/img827/6160/vegasbabyh.jpg


[color=red]Vegas Baby - Misfits - Webepisode[/color]
Webrip XviD Mp3 Eng + Sub Ita


http://img514.imageshack.us/img514/1502/inforelease.png



[color=red]Titolo:[/color] Vegas Baby
[color=red]Anno: [/color]2011
[color=red]Nazionalità: [/color]USA
[color=red]Genere:[/color] Webisode
[color=red]Lingua:[/color] Inglese
[color=red]Durata :[/color] 9 min e 31 sec. (episodio)


http://img190.imageshack.us/img190/7663/recension.png


[color=red] Per gli appassionati di Misfits, che il 30 Ottobre 2011 saranno di nuovi con noi, una piccola chicchetta tutta da gustare. Un Webisode, rilasciato online da E4, per dare addio a Nathan, personaggio di punta ed eclettico di questa serie di grande successo. Mi scuso per la scarsa qualità del video ma disponibile non c'era di meglio. Anzi ringrazio colui che si è adoperato nel realizzarlo e ringrazio subsfactory per i sottotitoli.
Buona visione in attesa della 3° Stagione...
[/color]

http://img529.imageshack.us/img529/7286/datifile.png


General
Complete name : Misfits.Vegas.Baby.Webrip.Eng+Sub_Ita-[IDN_CREW]
Format : AVI
Format/Info : Audio Video Interleave
File size : 61.3 MiB
Duration : 9mn 31s
Overall bit rate : 899 Kbps
Writing application : MEncoder Sherpya-SVN-r25513-4.2.2
Writing library : MPlayer

Video
Format : MPEG-4 Visual
Format profile : [email protected]
Format settings, BVOP : No
Format settings, QPel : No
Format settings, GMC : No warppoints
Format settings, Matrix : Default
Codec ID : XVID
Codec ID/Hint : XviD
Duration : 9mn 31s
Bit rate : 765 Kbps
Width : 640 pixels
Height : 360 pixels
Display aspect ratio : 16/9
Frame rate : 25.000 fps
Resolution : 24 bits
Colorimetry : 4:2:0
Scan type : Progressive
Bits/(Pixel*Frame) : 0.133
Stream size : 52.1 MiB (85%)
Writing library : XviD 1.1.2 (UTC 2006-11-01)

Audio
Format : MPEG Audio
Format version : Version 1
Format profile : Layer 3
Codec ID : 55
Codec ID/Hint : MP3
Duration : 9mn 31s
Bit rate mode : Constant
Bit rate : 32.0 Kbps
Channel(s) : 2 channels
Sampling rate : 44.1 KHz
Resolution : 16 bits
Stream size : 8.29 MiB (14%)
Alignment : Aligned on interleaves
Interleave, duration : 26 ms (0.65 video frame)
Interleave, preload duration : 520 ms
Writing library : LAME3.97


http://img20.imageshack.us/img20/4974/screenshotsph.png


http://img405.imageshack.us/img405/263/vegasbaby.jpg

Related torrents

Torrent NameAddedSizeSeedLeechHealth
1 Year+ - in TV shows425.68 MB02
1 Year+ - in TV shows340 MB00
1 Year+ - in TV shows340 MB10
1 Year+ - in TV shows338.99 MB10
1 Year+ - in TV shows358.09 MB10
1 Year+ - in TV shows723.11 MB21

Comments (0 Comments)




Please login or create a FREE account to post comments

Latest Searches

| Blackish S03E04 HDTV x264 FLEET PRiME | Definitive collection zimmer | Muppet s Christmas | Homemade amateur black white | dvd x player 5 5 3 7 crack | scorching ping pong girls 1 | how to get away to a murder | Ministry of sound i love 90s | ozzy S I N | Lucy Li Robbery Repelled A Busty Secretarys Alluring Talent |