Quick Browse
Movies
TV shows
Music
Games
Applications
Anime
Other
Facebook
Advertising

Friends
Torrent Download
Movie4u
1337x.to
Torrent Downloads




Verified torrent Mission Impossible Ghost Protocol 2011 CAM READNFO XviD AC3-26K


    Seeders : 0      Leechers : 0

Trackers List

Tracker NameLast CheckStatusSeedersLeechers




Torrent File Content (7 files)


Mission Impossible Ghost Protocol 2011 CAM READNFO XviD AC3-26K
     sample.avi -
31.69 MB

     sceneunderground.org.txt -
77 bytes

     att-networks.com.txt -
39 bytes

     Torrent downloaded from Demonoid.me.txt -
46 bytes

     Mission Impossible Ghost Protocol 2011 CAM READNFO XviD AC3-26K.avi -
1.53 GB

     Mission Impossible Ghost Protocol 2011 CAM READNFO XviD AC3-26K.nfo -
3.81 KB

     HDSceneRG.txt -
115 bytes



Description



http://img189.imageshack.us/img189/9586/mi4chod.jpg

[code]
Mission Impossible Ghost Protocol 2011 CAM READNFO XviD AC3-26K

Imdb:
http://www.imdb.com/title/tt1229238/

Plot:
The IMF is shut down when it's implicated in the bombing of the Kremlin, causing Ethan Hunt and his new team to go rogue to clear their organization's name.

Sources:
Russian-video thnxs
Generator-audio thnxs

Notes:
nice russian source thnxs guyz!!!
some video had to be cut so the audio and video duaration match! synced the eng audio.. around 50 secounds was cut at the start nothing important was cut of!
thnxs to generator for the eng audio thnxs m8!
that been said added few filters to video to make it look nice so take it or leave it!


Greetz:
Xtreme Encode|FYA|ILLUMANTI|CM8|RX|VISION|HDSCENE|
To all the people who have helped me :P you know who you are

Anything to offer email us @: [email protected]

Format : AVI
Format/Info : Audio Video Interleave
File size : 1.10 GiB
Duration : 2h 4mn
Overall bit rate : 1 268 Kbps

Video
ID : 0
Format : MPEG-4 Visual
Format profile : Advanced [email protected]
Format settings, BVOP : 2
Format settings, QPel : No
Format settings, GMC : No warppoints
Format settings, Matrix : Default (H.263)
Codec ID : XVID
Codec ID/Hint : XviD
Duration : 2h 4mn
Bit rate : 1 612 Kbps
Width : 720 pixels
Height : 320 pixels
Display aspect ratio : 2.25:1
Frame rate : 25.000 fps
Color space : YUV
Chroma subsampling : 4:2:0
Bit depth : 8 bits
Scan type : Progressive
Compression mode : Lossy
Bits/(Pixel*Frame) : 0.280
Stream size : 1.41 GiB (92%)
Writing library : XviD 63

Audio
ID : 1
Format : AC-3
Format/Info : Audio Coding 3
Mode extension : CM (complete main)
Codec ID : 2000
Duration : 2h 4mn
Bit rate mode : Constant
Bit rate : 128 Kbps
Channel(s) : 2 channels
Channel positions : Front: L R
Sampling rate : 44.1 KHz
Bit depth : 16 bits
Compression mode : Lossy
Stream size : 114 MiB (7%)
Alignment : Aligned on interleaves
Interleave, duration : 35 ms (0.87 video frame)

[/code]
Screens:
http://img43.imageshack.us/img43/3937/vlcsnap2011121711h33m42.png

http://img210.imageshack.us/img210/5296/vlcsnap2011121711h33m46.png

http://img23.imageshack.us/img23/5656/vlcsnap2011121711h33m57.png

http://img806.imageshack.us/img806/4931/vlcsnap2011121711h34m01.png

http://img845.imageshack.us/img845/5556/vlcsnap2011121711h34m11.png

http://img140.imageshack.us/img140/1898/vlcsnap2011121711h34m20.png


http://img851.imageshack.us/img851/5503/26ks.jpg

Thank you smallz for banner!

Related torrents

Torrent NameAddedSizeSeedLeechHealth
1 Year+ - in Movies1.38 GB134
1 Year+ - in Movies1.42 GB01
1 Year+ - in Movies1.43 GB00
1 Good
Verified torrent
1 Year+ - in Movies2.27 GB00
1 Comments
1 Good
Verified torrent
1 Year+ - in Movies1.12 GB00

Comments (0 Comments)




Please login or create a FREE account to post comments

Latest Searches

| 1080p BluRay DTS x264 HDS PRiME | Pet 2016 WEB DL | 114d rar | dual audio 2016 x men apocalypse | californication saison 567 | Baaghi 2016 720p BluRay Hindi x264 AC3 5 1 Mafiaking M2Tv | cheap trick at budokan i ii complete concert cd v drbn | 3d birthday | cash cash feat christina perri | Jack Reacher 15 epub |