Quick Browse
Movies
TV shows
Music
Games
Applications
Anime
Other
Facebook
Advertising

Friends
Torrent Download
Movie4u
1337x.to
Torrent Downloads




Verified torrent Mission Impossible Ghost Protocol 2011 TS READNFO XviD-26K


    Seeders : 0      Leechers : 0

Trackers List

Tracker NameLast CheckStatusSeedersLeechers




Torrent File Content (7 files)


Mission Impossible Ghost Protocol 2011 TS READNFO XviD-26K
     sample.avi -
21.14 MB

     sceneunderground.org.txt -
77 bytes

     att-networks.com.txt -
39 bytes

     Torrent downloaded from Demonoid.me.txt -
46 bytes

     Mission Impossible Ghost Protocol 2011 READNFO TS XviD-26K.nfo -
3.51 KB

     Mission Impossible Ghost Protocol 2011 TS READNFO XviD-26K.avi -
1.1 GB

     HDSceneRG.txt -
115 bytes



Description



http://img189.imageshack.us/img189/9586/mi4chod.jpg

Thank you smallz for banner!
[code]
Mission Impossible Ghost Protocol 2011 TS READNFO XviD-26K

Imdb:
http://www.imdb.com/title/tt1229238/

Plot:
The IMF is shut down when it's implicated in the bombing of the Kremlin, causing Ethan Hunt and his new team to go rogue to clear their organization's name.

Sources:
Generator

Notes:
Cropped and encoded the video, so take or leave it the source is not bad just a shame about the hardcoded arabic subs!


Greetz:
Xtreme Encode|FYA|ILLUMANTI|CM8|RX|VISION|HDSCENE|
To all the people who have helped me :P you know who you are

Anything to offer email us @: [email protected]

Format : AVI
Format/Info : Audio Video Interleave
File size : 1.10 GiB
Duration : 2h 4mn
Overall bit rate : 1 268 Kbps

Video
ID : 0
Format : MPEG-4 Visual
Format profile : Advanced [email protected]
Format settings, BVOP : 2
Format settings, QPel : No
Format settings, GMC : No warppoints
Format settings, Matrix : Default (H.263)
Codec ID : XVID
Codec ID/Hint : XviD
Duration : 2h 4mn
Bit rate : 1 000 Kbps
Width : 656 pixels
Height : 238 pixels
Display aspect ratio : 2.756
Frame rate : 23.000 fps
Color space : YUV
Chroma subsampling : 4:2:0
Bit depth : 8 bits
Scan type : Progressive
Compression mode : Lossy
Bits/(Pixel*Frame) : 0.278
Stream size : 889 MiB (79%)
Writing library : XviD 63

Audio
ID : 1
Format : MPEG Audio
Format version : Version 1
Format profile : Layer 3
Codec ID : 55
Codec ID/Hint : MP3
Duration : 2h 4mn
Bit rate mode : Constant
Bit rate : 256 Kbps
Channel(s) : 2 channels
Sampling rate : 44.1 KHz
Compression mode : Lossy
Stream size : 228 MiB (20%)
Alignment : Split accross interleaves
Interleave, duration : 26 ms (0.60 video frame)
Writing library : LAME3.98

[/code]
Screens:

http://img197.imageshack.us/img197/9459/vlcsnap2011121700h34m18.png

http://img338.imageshack.us/img338/1838/vlcsnap2011121700h34m42.png

http://img834.imageshack.us/img834/8020/vlcsnap2011121700h34m46.png

http://img708.imageshack.us/img708/1785/vlcsnap2011121700h34m52.png

http://img641.imageshack.us/img641/8215/vlcsnap2011121700h35m06.png


http://img851.imageshack.us/img851/5503/26ks.jpg

Thank you smallz for banner!

Related torrents

Torrent NameAddedSizeSeedLeechHealth
1 Year+ - in Movies680.5 MB2,97460
Verified torrent
1 Year+ - in Movies1.56 GB00
1 Year+ - in Movies1.96 GB2129
1 Good
Verified torrent
1 Year+ - in Movies1.66 GB1,8354,828
1 Year+ - in Movies1.38 GB134

Comments (1 comment)




fidodido

Added 1 Year+
Beginning might be a little cutoff. Cam has Arabic subtitles. Picture a little blurry, not the best sound quality.
Please login or create a FREE account to post comments

Latest Searches

| 2013 The Time of the Doctor | avengers origins 001 2015 webrip ranger1966 cbr | i see you epub | atkgalleria 16 03 19 canella and linden lesbian 1080p mp4 ktr n1c | anytime future | dubbed in hin | 720 video | 2014 compton | cheat codes amsterdam sex | jasmine jae anissa kate |