Quick Browse
Movies
TV shows
Music
Games
Applications
Anime
Other
Facebook
Advertising

Friends
Torrent Download
Movie4u
1337x.to
Torrent Downloads




Verified torrent Miucha e Tom Jobim - Miucha e Tom Jobim[Eac Flac Cue](TntVillage)


    Seeders : 12      Leechers : 1

Trackers List

Tracker NameLast CheckStatusSeedersLeechers




Torrent File Content (14 files)


Miucha e Tom Jobim - Miucha e Tom Jobim
     00._%MiuchaeTomJobim%_-_%MiuchaeTomJobim%.nfo -
2.13 KB

     01 - Turma do Funil (Mirabeau-Oliveira-Castro).flac -
21.27 MB

     02 - Triste Alegria (Miucha).flac -
12.4 MB

     03 - Aula de Matematica (Jobim-Pinto).flac -
16.52 MB

     04 - Sublime Tortura (Bororo).flac -
17.29 MB

     05 - Madrugada (Candinho-Pinto).flac -
14.39 MB

     06 - Samba do Carioca (Lyra-Moraes).flac -
15.48 MB

     07 - Falando de Amor (Jobim).flac -
13.68 MB

     08 - No Cego (Toquinho-Cacaso).flac -
19.91 MB

     09 - Dinheiro em Penca.flac -
59.56 MB

     Antonio Carlos Jobim - Miucha e Tom Jobim.log -
11.96 KB

     Antonio Carlos Jobim - Miucha e Tom Jobim.m3u -
349 bytes

     Folder.jpg -
42.33 KB

     Miucha e Tom Jobim.cue -
1.83 KB



Description



http://img198.imageshack.us/img198/2434/progettocover.jpg


http://img190.imageshack.us/img190/4992/0886973203620.jpg


http://img839.imageshack.us/img839/1734/67123971gg.jpg


Artist: Miucha e Tom Jobim
Title Of Album: Miucha & Tom Jobim
Etichetta: BMG
Pubblicazione: LP:1979 - CD:2001
Genre: Mpb
Style: Bossanova
Source: CD
Playing Time: 32.25
Total Size: 190,48 MB
Quality: FLAC+Cue+Log+Info+Cover
Bitrate: Lossless


Musicisti:
Tom Jobim> Piano
Ron Carter> Baixo Acustico
Rubens Bassini> Percussioni
Oscar Castro Neves> Violão
Miucha> Voz
Turma do Funil> Coro


http://img98.imageshack.us/img98/9113/progettotracklist.jpg


1. Triste Alegria (Miucha) [02.06]
2. Turma do Funil (Mirabeau-Oliveira-Castro)[03.27]
3. No Cego (Toquinho-Cacaso) [03.40]
4. Falando de Amor (Jobim) [02.34]
5. Samba do Carioca (Lyra-Moraes) [02.45]
6. Madrugada (Candinho-Pinto) [02.32]
7. Sublime Tortura (Bororo) [03.11]
8. Aula de Matematica (Jobim-Pinto) [02.41]
9. Dinheiro em Penca [09.25]


http://img210.imageshack.us/img210/734/progettorecensione.jpg



Per la registrazione del secondo album di Miucha e Tom Jobim, nel 79, il produttore Aloysio de Oliveira preferì l'atmosfera di New York. La presenza nella metropoli americana di artisti del calibro di Ron Carter, Oscar Castro Neves e Rubens Bassini contribuì ad un risultato finale molto sofisticato. Fra le canzoni più belle si distaccano AULA DI MATEMATICA, MADRUGADA E DINHEIRO EM PENCA, geniale realizzazione a 4 mani tra Jobim e Cacaso. Solamente una delle nove track è stata registrata in Brasile a Rio, TURMA DO FUNIL, con gli arrangiamenti di João Donato. Partecipazione speciale di Chico Buarque nella prima e nell'ultima fascia del CD. Buon ascolto a tutti!


http://img121.imageshack.us/img121/5530/progettodescrizione.jpg

MIUCHA
Miúcha, nome d'arte di Heloisa Maria Buarque de Hollanda (Rio de Janeiro, 30 novembre 1937), è una cantante e compositrice brasiliana, protagonista della Musica popolare brasiliana negli anni settanta. Miúcha è sorella del cantautore Chico Buarque, ex-moglie di João Gilberto e madre della cantante Bebel Gilberto.

TOM JOBIM
Antônio Carlos Brasileiro de Almeida Jobim (Rio de Janeiro, 25 gennaio 1927 – New York, 8 dicembre 1994) fu un musicista, compositore e cantante brasiliano.
Fu uno degli inventori del genere bossa nova e uno dei protagonisti della musica popolare brasiliana.
Considerato da molti il più importante compositore brasiliano, nel suo paese è conosciuto semplicemente come O Maestro.

http://img194.imageshack.us/img194/7083/miubi.gif


http://img713.imageshack.us/img713/7143/progettodatitecnici.jpg


Exact Audio Copy V1.0 beta 3 from 29. August 2011

EAC extraction logfile from 29. February 2012, 13:54

Antonio Carlos Jobim / Miucha e Tom Jobim

Used drive : HL-DT-STDVDRAM GSA-T40N Adapter: 0 ID: 0

Read mode : Secure
Utilize accurate stream : Yes
Defeat audio cache : Yes
Make use of C2 pointers : No

Read offset correction : 667
Overread into Lead-In and Lead-Out : No
Fill up missing offset samples with silence : Yes
Delete leading and trailing silent blocks : No
Null samples used in CRC calculations : Yes
Used interface : Native Win32 interface for Win NT & 2000
Gap handling : Appended to previous track

Used output format : User Defined Encoder
Selected bitrate : 896 kBit/s
Quality : High
Add ID3 tag : No
Command line compressor : C:\Program Files\Exact Audio Copy\FLAC\FLAC.EXE
Additional command line options : -8 -V -T "ARTIST=%MiuchaeTomJobim%" -T "TITLE=%MiuchaeTomJobim%" -T "ALBUM=%albumtitle%" -T "DATE=%2001%" -T "TRACKNUMBER=%9%" -T "GENRE=%bossanova%" -T "COMMENT=%TntVillage%"

TOC of the extracted CD

Track | Start | Length | Start sector | End sector
---------------------------------------------------------
1 | 0:00.00 | 3:27.05 | 0 | 15529
2 | 3:27.05 | 2:06.63 | 15530 | 25042
3 | 5:33.68 | 2:41.39 | 25043 | 37156
4 | 8:15.32 | 3:11.41 | 37157 | 51522
5 | 11:26.73 | 2:32.27 | 51523 | 62949
6 | 13:59.25 | 2:45.69 | 62950 | 75393
7 | 16:45.19 | 2:34.52 | 75394 | 86995
8 | 19:19.71 | 3:40.16 | 86996 | 103511
9 | 23:00.12 | 9:25.57 | 103512 | 145943


Track 1

Filename F:\MY EAC[.FLAC]\Miucha e Tom Jobim - Miucha e Tom Jobim\01 - Turma do Funil (Mirabeau-Oliveira-Castro).flac

Pre-gap length 0:00:02.00

Peak level 100.0 %
Extraction speed 2.0 X
Track quality 100.0 %
Test CRC AD7F778A
Copy CRC AD7F778A
Cannot be verified as accurate (confidence 1) [F33EBF01], AccurateRip returned [990BBC94] (AR v2)
Copy OK

Track 2

Filename F:\MY EAC[.FLAC]\Miucha e Tom Jobim - Miucha e Tom Jobim\02 - Triste Alegria (Miucha).flac

Pre-gap length 0:00:02.45

Peak level 100.0 %
Extraction speed 2.0 X
Track quality 100.0 %
Test CRC 6B07367B
Copy CRC 6B07367B
Cannot be verified as accurate (confidence 1) [310702A7], AccurateRip returned [60DFC3DA] (AR v2)
Copy OK

Track 3

Filename F:\MY EAC[.FLAC]\Miucha e Tom Jobim - Miucha e Tom Jobim\03 - Aula de Matematica (Jobim-Pinto).flac

Pre-gap length 0:00:02.46

Peak level 99.9 %
Extraction speed 2.1 X
Track quality 100.0 %
Test CRC D41F299C
Copy CRC D41F299C
Cannot be verified as accurate (confidence 1) [49B05132], AccurateRip returned [04F74807] (AR v2)
Copy OK

Track 4

Filename F:\MY EAC[.FLAC]\Miucha e Tom Jobim - Miucha e Tom Jobim\04 - Sublime Tortura (Bororo).flac

Pre-gap length 0:00:02.45

Peak level 99.9 %
Extraction speed 2.0 X
Track quality 99.9 %
Test CRC EBFE7315
Copy CRC EBFE7315
Cannot be verified as accurate (confidence 1) [37A04A2D], AccurateRip returned [BE0A35C7] (AR v2)
Copy OK

Track 5

Filename F:\MY EAC[.FLAC]\Miucha e Tom Jobim - Miucha e Tom Jobim\05 - Madrugada (Candinho-Pinto).flac

Pre-gap length 0:00:01.46

Peak level 99.9 %
Extraction speed 1.6 X
Track quality 99.9 %
Test CRC 3CD8443E
Copy CRC 3CD8443E
Cannot be verified as accurate (confidence 1) [A6FE83C8], AccurateRip returned [D1124547] (AR v2)
Copy OK

Track 6

Filename F:\MY EAC[.FLAC]\Miucha e Tom Jobim - Miucha e Tom Jobim\06 - Samba do Carioca (Lyra-Moraes).flac

Pre-gap length 0:00:02.45

Peak level 99.9 %
Extraction speed 1.8 X
Track quality 100.0 %
Test CRC BF32EADA
Copy CRC BF32EADA
Cannot be verified as accurate (confidence 1) [36F69A7C], AccurateRip returned [A2CE9367] (AR v2)
Copy OK

Track 7

Filename F:\MY EAC[.FLAC]\Miucha e Tom Jobim - Miucha e Tom Jobim\07 - Falando de Amor (Jobim).flac

Pre-gap length 0:00:02.44

Peak level 100.0 %
Extraction speed 1.6 X
Track quality 99.9 %
Test CRC F0F56504
Copy CRC F0F56504
Cannot be verified as accurate (confidence 1) [EAC8F456], AccurateRip returned [8443E75C] (AR v2)
Copy OK

Track 8

Filename F:\MY EAC[.FLAC]\Miucha e Tom Jobim - Miucha e Tom Jobim\08 - No Cego (Toquinho-Cacaso).flac

Pre-gap length 0:00:02.44

Peak level 99.9 %
Extraction speed 2.0 X
Track quality 100.0 %
Test CRC B52E1C66
Copy CRC B52E1C66
Cannot be verified as accurate (confidence 1) [C2D1B9A8], AccurateRip returned [34088B6C] (AR v2)
Copy OK

Track 9

Filename F:\MY EAC[.FLAC]\Miucha e Tom Jobim - Miucha e Tom Jobim\09 - Dinheiro em Penca.flac

Pre-gap length 0:00:02.45

Peak level 99.9 %
Extraction speed 2.2 X
Track quality 99.9 %
Test CRC 4B4AED37
Copy CRC 4B4AED37
Cannot be verified as accurate (confidence 1) [3DC9EA74], AccurateRip returned [FEB96E15] (AR v2)
Copy OK

None of the tracks are present in the AccurateRip database

No errors occurred

End of status report

==== Log checksum FEBFC82A010A93C65F7E44A2A117304C73A6A2ADB406ACC39D41AD54A8F631DC ====

http://img521.imageshack.us/img521/763/progettobandaeseed.jpg

24/24 > 80/90 Kb

Related torrents

Torrent NameAddedSizeSeedLeechHealth
Verified torrent
1 Year+ - in Music444.41 MB1511
Verified torrent
1 Year+ - in Music153.64 MB00
Verified torrent
1 Year+ - in Music388.47 MB20
1 Year+ - in Music428 MB00
1 Year+ - in Music433.96 MB810

Comments (0 Comments)




Please login or create a FREE account to post comments

Latest Searches

| Versus The Life and Films of Ken Loach | 8thstreetlatinas maya grand got goodies 1080p m | i hate you i u | marnie 1964 mp4 | Evil Angel Melissa Moore | Hostel II 2007 hindi | Reggae splash 7 | missax | private 320 | vikat follow me to tj |