Quick Browse
Movies
TV shows
Music
Games
Applications
Anime
Other
Facebook
Advertising

Friends
Torrent Download
Movie4u
1337x.to
Torrent Downloads




Moon (2009) (MPEG-4)(IPONE)(NL SUBS) 2Lions-Team


    Seeders : 23      Leechers : 33
Hash :725CB617BCE024C33B2A3717452A7392CA2340DC
Added :1 Year+ in Movies
Size :1.11 GB
Stream :WATCH ONLINE @ Movie4u


Moon (2009) (MPEG-4)(IPONE)(NL SUBS) 2Lions-Team
Free and Fast Download with Usenet 300GB+ free







Trackers List

Tracker NameLast CheckStatusSeedersLeechers




Torrent File Content (5 files)


Moon (2009) (MPEG-4)(IPONE)(NL SUBS) 2Lions-Team
    INFO 2Lions-Team
          logo 2Lions.jpg -
314.99 KB

          moon poster.jpg -
23.99 KB

          Moon (2009) (MPEG-4)(IPONE)(NL SUBS) 2Lions-Team.txt -
3.82 KB

          Torrents aan geboden door _2lions.ons-forum.nl.txt -
583 bytes

    MOVIE
          moon.mp4 -
1.11 GB



Description



Moon (2009) (MPEG-4)(IPONE)(NL SUBS) 2Lions-Team

http://img264.imageshack.us/img264/5172/moonposter.jpg



Nu in de bioscoop



Verenigd Koninkrijk
Thriller / Science-Fiction
97 minuten

geregisseerd door Duncan Jones
met Sam Rockwell, Kaya Scodelario en de stem van Kevin Spacey

Dutch:
Astronaut Sam Bell (Sam Rockwell) leeft al bijna drie jaar op de maan in opdracht van Lunar Industries.
Hij leeft daar een eenzaam bestaan, heeft amper contact met zijn vrouw Tess en driejarige dochter Eve
door een defecte satelliet. Zijn enige maatje aan boord is Gerty: een robot.
Twee weken voordat hij naar Aarde mag terugkeren krijgt Sam gezondheidsproblemen waardoor
hij een bijna-fataal ongeluk krijgt. Als hij hiervan herstelt krijgt hij zeer onverwachts bezoek.
Samen met de bezoeker ontdekken ze een groot complot.





English:
With only three weeks left in his three year contract,
Sam Bell is getting anxious to finally return to Earth.
He is the only occupant of a Moon-based manufacturing facility along with his computer and assistant, GERTY.
The long period of time alone however has resulted in him talking to himself for the most part,
or to his plants. Direct communication with Earth is not possible due to a long-standing
communication malfunction but he does get an occasional message from his wife Tess.
When he has an accident however, he wakens to find that he is not alone.
He also comes to realize that his world is not what he thought it was.





Source.............: Retail | NTSC | DVD5
Audio..............: Engels
Subtitles..........: Nederlands
Formaat ...........: MPEG-4



Format : MPEG-4
Format profile : Base Media
Codec ID : isom
File size : 1.11 GiB
Duration : 1h 37mn
Overall bit rate : 1 630 Kbps


Video
ID : 1
Format : MPEG-4 Visual
Format profile : [email protected]
Format settings, BVOP : No
Format settings, QPel : No
Format settings, GMC : No warppoints
Format settings, Matrix : Default (H.263)
Codec ID : 20
Duration : 1h 37mn
Bit rate mode : Variable
Bit rate : 1 498 Kbps
Width : 720 pixels
Height : 406 pixels
Display aspect ratio : 16/9
Frame rate mode : Constant
Frame rate : 25.000 fps
Resolution : 24 bits
Colorimetry : 4:2:0
Scan type : Progressive
Bits/(Pixel*Frame) : 0.205
Stream size : 1.02 GiB (92%)
Writing library : Lavc51.40.4


Audio
ID : 2
Format : AAC
Format/Info : Advanced Audio Codec
Format version : Version 4
Format profile : LC
Format settings, SBR : No
Codec ID : 40
Duration : 1h 37mn
Bit rate mode : Variable
Bit rate : 128 Kbps
Channel(s) : 2 channels
Channel positions : L R
Sampling rate : 48.0 KHz
Resolution : 16 bits
Stream size : 88.8 MiB (8%)

*****************************************


Brought to you by
Pioen
http://i226.photobucket.com/albums/dd118/FloraKing/Avator/bloemenmeisje.gif

2Lions Team



http://i845.photobucket.com/albums/ab16/hortencia9/_96637_four_weddings_and_a_funeral_.jpg



2Lions-Team for all your Dutch MOVIES and more

*****************************************

DON T HIT AND RUN Niet gelijk afhaken als de film binnen is blijf seeden.

Related torrents

Torrent NameAddedSizeSeedLeechHealth
1 Year+ - in Movies1.13 GB13
1 Year+ - in Movies1.09 GB2215
1 Year+ - in Movies1.08 GB517
1 Year+ - in Movies839.15 MB116
1 Year+ - in Movies1.21 GB10

Comments (0 Comments)




Please login or create a FREE account to post comments

Latest Searches

| Pure S01E03 | Holly Heart | Photocopy 1080p | Soniccouture Hammersmith EV s | x build | teenstryblacks Cristal | Garrison Paul | femout danielle shavanoxx danielle spreads wide 10 aug 2015 720p rq | run man down | windows 8 1 loader key |