Quick Browse
Movies
TV shows
Music
Games
Applications
Anime
Other
Facebook
Advertising

Friends
Torrent Download
Movie4u
1337x.to
Torrent Downloads




Verified torrent Moreira Da Silva - 50 Anos de Samba[Eac Flac Cue](TntVillage)


    Seeders : 13      Leechers : 11

Trackers List

Tracker NameLast CheckStatusSeedersLeechers




Torrent File Content (20 files)


Moreira Da Silva - 50 anos de samba de breque
     00._%Moreira.Da.Silva%_-_%50.anos.de.samba%.nfo -
2.53 KB

     01 - Acertei no Milhar.flac -
11.87 MB

     02 - Fui ao Dentista.flac -
19.76 MB

     03 - Na Subida do Morro.flac -
15.89 MB

     04 - Rei do Gatilho.flac -
19.56 MB

     05 - Cidade Lagoa.flac -
20.44 MB

     06 - Fenômeno.flac -
14.51 MB

     07 - No Zeca Suvaco.flac -
15.92 MB

     08 - Judia Rara.flac -
22.75 MB

     09 - Sou Candidato.flac -
14.67 MB

     10 - Margarida.flac -
13.37 MB

     11 - Rei do Cangaço.flac -
12.54 MB

     12 - Que Malandro Sou Eu.flac -
16.7 MB

     13 - Lapa, Década de Trinta.flac -
17.17 MB

     14 - Sambista de Consultório.flac -
10.61 MB

     15 - Dormi no Molhado.flac -
11.89 MB

     50 Anos de Breque.cue -
2.53 KB

     Folder.JPG -
55.79 KB

     Moreira da Silva - 50 Anos de Breque.log -
15.62 KB

     Moreira da Silva - 50 Anos de Breque.m3u -
404 bytes



Description



http://img198.imageshack.us/img198/2434/progettocover.jpg


http://www.freeimagehosting.net/newuploads/9i5lp.jpg


http://www.freeimagehosting.net/newuploads/4dt7l.jpg


http://www.freeimagehosting.net/newuploads/ykb5b.gif


Title: Moreira da Silva – 50 anos de samba de breque
Label: Cid
Format: cd
Country: Brazil
Genre: Mpb
Style: Samba
Source: CD
Year: (Lp 1989) - (Cd 2003)
Playing Time: 35.25
Total Size: 237,65 MB
Musicos:
Picolé-Bateria
Jorjão-Baixo
Cavaco-Zé Menenez
Violão 7 cordas-Horondino
Teclado-Jota Moraes
Acordeon-Chiquinho
Sax-Mauro Seineise
Flaute-Zé Carlos
Trompete-Bidinho
Trombone-Roberto Marques
Sax soprano-Abel Ferreira
Ritmo-Zizinho
Coro-Dinorha,Marlene,Zélia,Raimundo,Stenio,Ismail e Ari Bispo
Voz-Moreira Da Silva


http://img98.imageshack.us/img98/9113/progettotracklist.jpg


1. Acertei no Milhar [01.46]
2. Fui ao Dentista [02.55]
3. Na Subida do Morro [02.26]
4. Rei do Gatilho [02.50]
5. Cidade Lagoa [02.57]
6. Fenômeno [02.04]
7. No Zeca Suvaco [02.16]
8. Judia Rara [03.14]
9. Sou Candidato [02.15]
10. Margarida [01.55]
11. Rei do Cangaço [02.05]
12. Que Malandro Sou Eu [02.20]
13. Lapa, Década de Trinta [02.36]
14. Sambista de Consultório [01.42]
15. Dormi no Molhado [01.57]


http://img210.imageshack.us/img210/734/progettorecensione.jpg


Moreira da Silva è stato l'inventore e il principale protagonista del Samba de Breque, lento stile di samba. Le dolci canzoni samba, sono continuamente spezzate da improvvisazioni parlate. Buon ascolto.

http://img121.imageshack.us/img121/5530/progettodescrizione.jpg

Antônio Moreira da Silva (Rio de Janeiro, 1 de abril de 1902 — Rio de Janeiro, 6 de junho de 2000)È stato unfamoso compositore e cantante brasiliano, anche conosciuto con l'appellativo di Kid Moringueira.
Figlio maggiore di Bernardino de Sousa Paranhos, trombettista della banda militare e di donna Pauladina de Assis Moreira.

Carioca di Tijuca, nato nel Morro do Salgueiro, iniziò gli studi a nove anni e a causa della morte del padre li dovette interrompere a undici. È considerato il creatore del SAMBA DE BREQUE, la sua carriera musicale iniziò nel 1931 con la canzone Ererê e Rei da Umbanda. Nel 1992, fu invitato a capitanare, per l'occasione del carnevale la scuola di samba Unidos de Manguinhos. Nel 95 ha registrato, all'età di 93 anni, "Os 3 Malandros In Concert" con Dicró e Bezerra da Silva. Il suo ultimo show lo fece alla "tenera" età di 98 anni. Insomma, un icona per tutto il Brasile.

http://img713.imageshack.us/img713/7143/progettodatitecnici.jpg


Exact Audio Copy V1.0 beta 3 from 29. August 2011

EAC extraction logfile from 17. February 2012, 22:09

Moreira da Silva / 50 Anos de Breque

Used drive : HL-DT-STDVDRAM GSA-T40N Adapter: 0 ID: 0

Read mode : Secure
Utilize accurate stream : Yes
Defeat audio cache : Yes
Make use of C2 pointers : No

Read offset correction : 667
Overread into Lead-In and Lead-Out : No
Fill up missing offset samples with silence : Yes
Delete leading and trailing silent blocks : No
Null samples used in CRC calculations : Yes
Used interface : Native Win32 interface for Win NT & 2000
Gap handling : Appended to previous track

Used output format : User Defined Encoder
Selected bitrate : 896 kBit/s
Quality : High
Add ID3 tag : No
Command line compressor : C:\Program Files\Exact Audio Copy\FLAC\FLAC.EXE
Additional command line options : -8 -V -T "ARTIST=%artist%" -T "TITLE=%title%" -T "ALBUM=%albumtitle%" -T "DATE=%year%" -T "TRACKNUMBER=%tracknr%" -T "GENRE=%genre%" -T "COMMENT=%comment%" -T "BAND=%albuminterpret%" -T "ALBUMARTIST=%albuminterpret%" -T "COMPOSER=%composer%" %haslyrics%--tag-from-file=LYRICS="%lyricsfile%"%haslyrics% -T "DISCNUMBER=%cdnumber%" -T "TOTALDISCS=%totalcds%" -T "TOTALTRACKS=%numtracks%" %hascover%--picture="%coverfile%"%hascover% %source% -o %dest%


TOC of the extracted CD

Track | Start | Length | Start sector | End sector
---------------------------------------------------------
1 | 0:00.00 | 1:46.27 | 0 | 7976
2 | 1:46.27 | 2:55.55 | 7977 | 21156
3 | 4:42.07 | 2:26.22 | 21157 | 32128
4 | 7:08.29 | 2:50.07 | 32129 | 44885
5 | 9:58.36 | 2:57.45 | 44886 | 58205
6 | 12:56.06 | 2:04.65 | 58206 | 67570
7 | 15:00.71 | 2:16.71 | 67571 | 77841
8 | 17:17.67 | 3:14.04 | 77842 | 92395
9 | 20:31.71 | 2:15.49 | 92396 | 102569
10 | 22:47.45 | 1:55.69 | 102570 | 111263
11 | 24:43.39 | 2:05.48 | 111264 | 120686
12 | 26:49.12 | 2:20.20 | 120687 | 131206
13 | 29:09.32 | 2:36.51 | 131207 | 142957
14 | 31:46.08 | 1:42.39 | 142958 | 150646
15 | 33:28.47 | 1:57.23 | 150647 | 159444


Track 1

Filename F:\MY EAC[.FLAC]\Moreira Da Silva - 50 anos de samba de breque\01 - Acertei no Milhar.flac

Pre-gap length 0:00:02.00

Peak level 98.8 %
Extraction speed 1.7 X
Track quality 100.0 %
Test CRC 32DA5249
Copy CRC 32DA5249
Track not present in AccurateRip database
Copy OK

Track 2

Filename F:\MY EAC[.FLAC]\Moreira Da Silva - 50 anos de samba de breque\02 - Fui ao Dentista.flac

Pre-gap length 0:00:02.00

Peak level 98.8 %
Extraction speed 2.1 X
Track quality 100.0 %
Test CRC 4EBC406D
Copy CRC 4EBC406D
Track not present in AccurateRip database
Copy OK

Track 3

Filename F:\MY EAC[.FLAC]\Moreira Da Silva - 50 anos de samba de breque\03 - Na Subida do Morro.flac

Pre-gap length 0:00:01.74

Peak level 98.8 %
Extraction speed 2.1 X
Track quality 100.0 %
Test CRC BF7D1F05
Copy CRC BF7D1F05
Track not present in AccurateRip database
Copy OK

Track 4

Filename F:\MY EAC[.FLAC]\Moreira Da Silva - 50 anos de samba de breque\04 - Rei do Gatilho.flac

Pre-gap length 0:00:02.00

Peak level 98.8 %
Extraction speed 2.3 X
Track quality 100.0 %
Test CRC 7FC6A09B
Copy CRC 7FC6A09B
Track not present in AccurateRip database
Copy OK

Track 5

Filename F:\MY EAC[.FLAC]\Moreira Da Silva - 50 anos de samba de breque\05 - Cidade Lagoa.flac

Pre-gap length 0:00:02.00

Peak level 98.8 %
Extraction speed 2.0 X
Track quality 99.9 %
Test CRC 0FA11E87
Copy CRC 0FA11E87
Track not present in AccurateRip database
Copy OK

Track 6

Filename F:\MY EAC[.FLAC]\Moreira Da Silva - 50 anos de samba de breque\06 - Fenômeno.flac

Pre-gap length 0:00:02.00

Peak level 98.8 %
Extraction speed 2.3 X
Track quality 100.0 %
Test CRC 31E56C45
Copy CRC 31E56C45
Track not present in AccurateRip database
Copy OK

Track 7

Filename F:\MY EAC[.FLAC]\Moreira Da Silva - 50 anos de samba de breque\07 - No Zeca Suvaco.flac

Pre-gap length 0:00:02.00

Peak level 98.8 %
Extraction speed 2.4 X
Track quality 100.0 %
Test CRC CF8EF1B1
Copy CRC CF8EF1B1
Track not present in AccurateRip database
Copy OK

Track 8

Filename F:\MY EAC[.FLAC]\Moreira Da Silva - 50 anos de samba de breque\08 - Judia Rara.flac

Pre-gap length 0:00:02.00

Peak level 98.8 %
Extraction speed 2.6 X
Track quality 100.0 %
Test CRC 993003AD
Copy CRC 993003AD
Track not present in AccurateRip database
Copy OK

Track 9

Filename F:\MY EAC[.FLAC]\Moreira Da Silva - 50 anos de samba de breque\09 - Sou Candidato.flac

Pre-gap length 0:00:02.00

Peak level 98.8 %
Extraction speed 2.5 X
Track quality 100.0 %
Test CRC C128E9BD
Copy CRC C128E9BD
Track not present in AccurateRip database
Copy OK

Track 10

Filename F:\MY EAC[.FLAC]\Moreira Da Silva - 50 anos de samba de breque\10 - Margarida.flac

Pre-gap length 0:00:02.00

Peak level 98.8 %
Extraction speed 2.5 X
Track quality 100.0 %
Test CRC 912A979D
Copy CRC 912A979D
Track not present in AccurateRip database
Copy OK

Track 11

Filename F:\MY EAC[.FLAC]\Moreira Da Silva - 50 anos de samba de breque\11 - Rei do Cangaço.flac

Pre-gap length 0:00:02.00

Peak level 98.8 %
Extraction speed 2.6 X
Track quality 100.0 %
Test CRC 31A61372
Copy CRC 31A61372
Track not present in AccurateRip database
Copy OK

Track 12

Filename F:\MY EAC[.FLAC]\Moreira Da Silva - 50 anos de samba de breque\12 - Que Malandro Sou Eu.flac

Pre-gap length 0:00:02.00

Peak level 98.8 %
Extraction speed 2.6 X
Track quality 100.0 %
Test CRC 6AC8C4DD
Copy CRC 6AC8C4DD
Track not present in AccurateRip database
Copy OK

Track 13

Filename F:\MY EAC[.FLAC]\Moreira Da Silva - 50 anos de samba de breque\13 - Lapa, Década de Trinta.flac

Pre-gap length 0:00:02.00

Peak level 98.8 %
Extraction speed 2.3 X
Track quality 99.9 %
Test CRC 895A75CF
Copy CRC 895A75CF
Track not present in AccurateRip database
Copy OK

Track 14

Filename F:\MY EAC[.FLAC]\Moreira Da Silva - 50 anos de samba de breque\14 - Sambista de Consultório.flac

Pre-gap length 0:00:02.00

Peak level 98.8 %
Extraction speed 2.6 X
Track quality 100.0 %
Test CRC 2FE88032
Copy CRC 2FE88032
Track not present in AccurateRip database
Copy OK

Track 15

Filename F:\MY EAC[.FLAC]\Moreira Da Silva - 50 anos de samba de breque\15 - Dormi no Molhado.flac

Pre-gap length 0:00:02.00

Peak level 98.8 %
Extraction speed 2.8 X
Track quality 100.0 %
Test CRC 3766DED1
Copy CRC 3766DED1
Track not present in AccurateRip database
Copy OK


None of the tracks are present in the AccurateRip database

No errors occurred

End of status report

==== Log checksum DDD694487AADCB70D078884E7CA297BABBDB6E8E02A34EF5362B56FFB375B9E5 ====

Related torrents

Torrent NameAddedSizeSeedLeechHealth
Verified torrent
1 Year+ - in Music310.01 MB110
Verified torrent
1 Year+ - in Music316.39 MB541
Verified torrent
1 Year+ - in Music318.21 MB25
Verified torrent
1 Year+ - in Music269.44 MB329
Verified torrent
1 Year+ - in Music289.19 MB209

Comments (0 Comments)




Please login or create a FREE account to post comments

Latest Searches

| I Dont Wanna Live | r3hab ft nervo revolution | Carol zip | rose alleen | suicide squad 2016 extras | The Big Food Rescue Series | xxx porn full | NEW hindi dubbed 2016 | fast and the furious 7 1080p hindi | the diab |