Quick Browse
Movies
TV shows
Music
Games
Applications
Anime
Other
Facebook
Advertising

Friends
Torrent Download
Movie4u
1337x.to
Torrent Downloads




Motherhood_DVDRIP_AC3_XVID_-_IMAGiNE


    Seeders : 13      Leechers : 18
Hash :36F6362CF4464B1E2942442E433C19F29CBC9627
Added :1 Year+ in Movies
Size :1.38 GB
Stream :WATCH ONLINE @ Movie4u


Motherhood_DVDRIP_AC3_XVID_-_IMAGiNE
Free and Fast Download with Usenet 300GB+ free







Trackers List

Tracker NameLast CheckStatusSeedersLeechers




Torrent File Content (2 files)


Motherhood DVDRip www.IWANNADOWNLOAD.com
     Motherhood DVDRIP www.IWANNADOWNLOAD.com.avi -
1.36 GB

     SAMPLE.avi -
21.1 MB



Description



http://i48.tinypic.com/24zkjyd.jpg


Filename:
Motherhood_DVDRIP_AC3_XVID_-_IMAGiNE

http://i46.tinypic.com/2niu1hk.png

http://i49.tinypic.com/25p0k07.png

http://i49.tinypic.com/iggehc.png

http://i49.tinypic.com/2yulshe.png


Ripper ...........: IMAGiNE IMDB Rating.......:5.8/10
Video Codec.......: XVID Release Date......:30/01/10
Audio Codec.......:AC3 Theatre Date......:23/10/09
Audio Bitrate.....:448 Runtime.......:1h 29mn
Subtitles.........:NIL Language..........:ENGLISH
Resolution...... 704 x 384 IMDb URL..........:http://www.imdb.com/title/tt1220220/


DETAILS:

Video
ID : 0
Format : MPEG-4 Visual
Format profile : Advanced [email protected]
Format settings, BVOP : Yes
Format settings, QPel : No
Format settings, GMC : No warppoints
Format settings, Matrix : Default (H.263)
Muxing mode : Packed bitstream
Codec ID : XVID
Codec ID/Hint : XviD
Duration : 1h 29mn
Bit rate : 1 720 Kbps
Width : 704 pixels
Height : 384 pixels
Display aspect ratio : 16/9
Frame rate : 23.976 fps
Resolution : 24 bits
Colorimetry : 4:2:0
Scan type : Progressive
Bits/(Pixel*Frame) : 0.265
Stream size : 1.07 GiB (79%)
Writing library : XviD 1.2.1 (UTC 2008-12-04)

Audio
ID : 1
Format : AC-3
Format/Info : Audio Coding 3
Codec ID : 2000
Duration : 1h 29mn
Bit rate mode : Constant
Bit rate : 448 Kbps
Channel(s) : 6 channels
Channel positions : Front: L C R, Surround: L R, LFE
Sampling rate : 48.0 KHz
Stream size : 286 MiB (21%)
Alignment : Aligned on interleaves
Interleave, duration : 42 ms (1.00 video frame)
Interleave, preload duration : 512 ms

Related torrents

Torrent NameAddedSizeSeedLeechHealth
1 Year+ - in Movies1.49 GB00
1 Year+ - in Movies646.2 MB00
1 Year+ - in Movies711.38 MB00
1 Year+ - in Movies670.52 MB00
1 Year+ - in Movies696.79 MB19
1 Year+ - in Movies681.22 MB00

Comments (0 Comments)




Please login or create a FREE account to post comments

Latest Searches

| Universal Soldier Day of Reckoning 1080p dual | DarkX Jaye Summers Innocent Cutie Tries BBC | Troy 2004 avi | Beverly Hills Ninja 1997 mp4 | bravo invitational | control device | John Wick 2014 ITALIAN | christmas aac | FAST N FIVE | Minecraft Game on PC |