Quick Browse
Movies
TV shows
Music
Games
Applications
Anime
Other
Facebook
Advertising

Friends
Torrent Download
Movie4u
1337x.to
Torrent Downloads




Mozart The Collection (5CD Box) [Eac.Flac.Cue]


    Seeders : 72      Leechers : 24
Hash :9883F209ABDB5A1CA063A7E4B639C44893B13F93
Added :1 Year+ by kwisatz in Music - Music
Size :1.35 GB
Stream :WATCH ONLINE @ Movie4u


Mozart The Collection (5CD Box) [Eac.Flac.Cue]
Free and Fast Download with Usenet 300GB+ free







Trackers List

Tracker NameLast CheckStatusSeedersLeechers




Torrent File Content (55 files)


Mozart The Collection (5CD Box) [Eac.Flac.Cue][H33t] by jobam
    Mozart4
          Various Artists - Mozart_Violin Concertos I, II, V.flac -
376.88 MB

    Mozart3
          Mozart - Symphonien 40 & 41.flac -
266.39 MB

    Mozart2
          Mozart, Wolfgang Amadeus - Symphonie No24 KV182 No25 KV183 No26 KV184 No27 KV199 No32 KV318 - St Martin in the Fields - Marriner.flac -
236.33 MB

    Mozart5
          Various Artists - Piano Concertos 23 and 24.flac -
231.46 MB

    Mozart1
          Academy of St. Martin in the Fields (Marriner, 1982) - Mozart Overtures.flac -
218.08 MB

          Inlay1.jpg -
4.12 MB

    Mozart4
          Back.jpg -
3.35 MB

    Mozart2
          Back.jpg -
3.35 MB

    Mozart3
          Back.jpg -
3.22 MB

          Inlay1.jpg -
3.03 MB

    Mozart5
          Back.jpg -
2.95 MB

    Mozart4
          Inlay2.jpg -
2.66 MB

    Mozart2
          Inlay2.jpg -
2.6 MB

    Mozart1
          Back.jpg -
2.47 MB

    Mozart4
          Front.jpg -
2.39 MB

    Mozart3
          Inlay2.jpg -
2.34 MB

    Mozart2
          Front.jpg -
2.23 MB

    Mozart5
          Front.jpg -
2.18 MB

    Mozart1
          Front.jpg -
2.15 MB

    Mozart3
          Front.jpg -
2.02 MB

    Mozart5
          Inlay2.jpg -
2.01 MB

    Mozart1
          Inlay2.jpg -
1.96 MB

    Mozart4
          Inlay1.jpg -
1.7 MB

    Mozart5
          Inlay1.jpg -
1.63 MB

    Mozart2
          Inlay1.jpg -
1.61 MB

          CD.jpg -
1.32 MB

    Mozart3
          CD.jpg -
1.24 MB

    Mozart1
          CD.jpg -
1.21 MB

    Mozart4
          CD.jpg -
1.17 MB

    Mozart5
          CD.jpg -
1.14 MB

    Mozart4
          Front800.jpg -
139.27 KB

    Mozart1
          Front800.jpg -
138.57 KB

    Mozart5
          Front800.jpg -
131.23 KB

    Mozart2
          Front800.jpg -
128.6 KB

    Mozart3
          Front800.jpg -
126.2 KB

    Mozart4
          Front500.jpg -
66.53 KB

    Mozart1
          Front500.jpg -
66.34 KB

    Mozart5
          Front500.jpg -
63.35 KB

    Mozart2
          Front500.jpg -
61.91 KB

    Mozart3
          Front500.jpg -
60.82 KB

    Mozart2
          Mozart, Wolfgang Amadeus - Symphonie No24 KV182 No25 KV183 No26 KV184 No27 KV199 No32 KV318 - St Martin in the Fields - Marriner.cue -
4.26 KB

          Mozart, Wolfgang Amadeus - Symphonie No24 KV182 No25 KV183 No26 KV184 No27 KV199 No32 KV318 - St Martin in the Fields - Marriner.log -
3.72 KB

    Mozart1
          Academy of St. Martin in the Fields (Marriner, 1982) - Mozart Overtures.log -
3.16 KB

    Mozart4
          Various Artists - Mozart_Violin Concertos I, II, V.log -
2.48 KB

    Mozart3
          Mozart - Symphonien 40 & 41.log -
2.47 KB

    Mozart5
          Various Artists - Piano Concertos 23 and 24.log -
2.18 KB

    Mozart1
          Academy of St. Martin in the Fields (Marriner, 1982) - Mozart Overtures.cue -
1.86 KB

    Mozart4
          Various Artists - Mozart_Violin Concertos I, II, V.cue -
1.48 KB

    Mozart3
          Mozart - Symphonien 40 & 41.cue -
1.23 KB

    Mozart2
          Mozart, Wolfgang Amadeus - Symphonie No24 KV182 No25 KV183 No26 KV184 No27 KV199 No32 KV318 - St Martin in the Fields - Marriner.txt -
1.19 KB



Description



[size=5][COLOR="Red"]Mozart: The Collection (5CD Box)[/COLOR][/SIZE]

http://s2.imagestime.com/images.php/i4926_mozartboxset.png


A superb 5CD Box, released by EMI-Classics in 1996 featuring Overtures and Symphonies performed by the famous Academy St. Martin-in-the-Fields Chamber Orchestra under the direction of Sir Neville Marriner, Violin Concertos with soloists David Oistrakh and Frank Peter Zimmermann and Piano Concertos with Christian Zacharias. Original recordings of 1972-1986 fully remastered, with top artists who will guide you through a five hours musical journey to the world of melody. Great music from the sweetest composer of all times in lossless. Enjoy.

[size=4][COLOR="Blue"]Mozart - Overtures[/COLOR][/SIZE]
tracks: 9 | ~ 242 Mb | 49:24

http://s2.imagestime.com/images.php/i4927_cd1.png


TRACKLIST
01. Le nozzo di Figaro, K.492
02. Die Zauberflote, K.620
03. La clemenza di Tito, K.621
04. Lucio Silla, K.135
05. Die Entfuhrung aus dem Serail, K. 384
06. Don Giovanni, K. 527
07. Idomeneo, K. 366
08. Cosi fan tutte, K. 588
09. Der Schauspieldirekto, K. 486

Academy St. Martin-in-the-Fields conducted by Sir Neville Marriner
Original Recording: 1982

[COLOR="Red"]EAC log:[/COLOR]

[CODE]Exact Audio Copy V0.99 prebeta 5 from 4. May 2009

EAC extraction logfile from 12. March 2011, 9:40

Academy of St. Martin in the Fields (Marriner, 1982) / Mozart Overtures

Used drive : HL-DT-STDVDRAM GH10N Adapter: 1 ID: 0

Read mode : Secure
Utilize accurate stream : Yes
Defeat audio cache : Yes
Make use of C2 pointers : No

Read offset correction : 667
Overread into Lead-In and Lead-Out : No
Fill up missing offset samples with silence : Yes
Delete leading and trailing silent blocks : No
Null samples used in CRC calculations : Yes
Used interface : Native Win32 interface for Win NT & 2000

Used output format : User Defined Encoder
Selected bitrate : 896 kBit/s
Quality : High
Add ID3 tag : No
Command line compressor : C:\Program Files\FLAC\flac.exe
Additional command line options : -V -5 -T "artist=%a" -T "title=%t" -T "album=%g" -T "date=%y" -T "tracknumber=%n" -T "genre=%m" -5 %s


TOC of the extracted CD

Track | Start | Length | Start sector | End sector
---------------------------------------------------------
1 | 0:00.33 | 4:13.55 | 33 | 19062
2 | 4:14.13 | 6:50.00 | 19063 | 49812
3 | 11:04.13 | 4:30.37 | 49813 | 70099
4 | 15:34.50 | 8:32.48 | 70100 | 108547
5 | 24:07.23 | 5:43.50 | 108548 | 134322
6 | 29:50.73 | 6:30.17 | 134323 | 163589
7 | 36:21.15 | 4:26.23 | 163590 | 183562
8 | 40:47.38 | 4:54.27 | 183563 | 205639
9 | 45:41.65 | 3:43.03 | 205640 | 222367


Range status and errors

Selected range

Filename S:\EAC Rips\CLASSICAL\Mozart The Collection1\Mozart1\Academy of St. Martin in the Fields (Marriner, 1982) - Mozart Overtures.wav

Peak level 99.9 %
Range quality 100.0 %
Test CRC D40B4554
Copy CRC D40B4554
Copy OK

No errors occurred


AccurateRip summary

Track 1 cannot be verified as accurate (confidence 2) [C8562185], AccurateRip returned [12DD298B]
Track 2 cannot be verified as accurate (confidence 2) [38A9C2EF], AccurateRip returned [BCD331FD]
Track 3 cannot be verified as accurate (confidence 2) [171387A9], AccurateRip returned [646EE1EF]
Track 4 cannot be verified as accurate (confidence 2) [54E7D555], AccurateRip returned [BFFD4567]
Track 5 cannot be verified as accurate (confidence 2) [5CFDBAC1], AccurateRip returned [A31E9C39]
Track 6 cannot be verified as accurate (confidence 2) [2C67E370], AccurateRip returned [D3F5587A]
Track 7 cannot be verified as accurate (confidence 2) [ADB02BA8], AccurateRip returned [079C0B2E]
Track 8 cannot be verified as accurate (confidence 2) [6E8345F5], AccurateRip returned [41391473]
Track 9 cannot be verified as accurate (confidence 2) [C8BD69EB], AccurateRip returned [72921913]

No tracks could be verified as accurate
You may have a different pressing from the one(s) in the database

End of status report[/CODE]


[size=4][COLOR="Blue"]Mozart - Symphonies 24, 25, 26, 25, 32[/COLOR][/SIZE]
tracks: 16 | ~ 260 Mb | 1:04:20

http://s2.imagestime.com/images.php/i4928_cd2.png


TRACKLIST
Symphony No.24 in B flat major, K.182
01. I Allegro Spiritoso
02. II Andantino grazioso
03. III Allegro
Symphony No.25 in G minor, K.183
04. I Allegro con brio
05. II Andante
06. III Menuetto & Trio
07. IV Allegro

Symphony No.26 in E flat major, K.184
08. I Molto Presto
09. II Andante
10. III Allegro

Symphony No.27 in G major, K.199
11. I Allegro
12. II Andantino grazioso
13. III Presto

Symphony No.32 in G major, K.318
14. I Allegro Spiritoso
15. II Andante
16. III Tempo I

Academy St. Martin-in-the-Fields conducted by Sir Neville Marriner
Original Recording: 1988

[COLOR="Red"]EAC log:[/COLOR]

[CODE]Exact Audio Copy V0.99 prebeta 5 from 4. May 2009

EAC extraction logfile from 12. March 2011, 10:40

Mozart, Wolfgang Amadeus - Symphonie No24 KV182 No25 KV183 No26 KV184 No27 KV199 No32 KV318 - St Martin in the Fields - Marriner / Mozart, Wolfgang Amadeus - Symphonie No24 KV182 No25 KV183 No26 KV184 No27 KV199 No32 KV318 - St Martin in the Fields - Marrin

Used drive : HL-DT-STDVDRAM GH10N Adapter: 1 ID: 0

Read mode : Secure
Utilize accurate stream : Yes
Defeat audio cache : Yes
Make use of C2 pointers : No

Read offset correction : 667
Overread into Lead-In and Lead-Out : No
Fill up missing offset samples with silence : Yes
Delete leading and trailing silent blocks : No
Null samples used in CRC calculations : Yes
Used interface : Native Win32 interface for Win NT & 2000

Used output format : User Defined Encoder
Selected bitrate : 896 kBit/s
Quality : High
Add ID3 tag : No
Command line compressor : C:\Program Files\FLAC\flac.exe
Additional command line options : -V -5 -T "artist=%a" -T "title=%t" -T "album=%g" -T "date=%y" -T "tracknumber=%n" -T "genre=%m" -5 %s


TOC of the extracted CD

Track | Start | Length | Start sector | End sector
---------------------------------------------------------
1 | 0:00.33 | 4:06.40 | 33 | 18522
2 | 4:06.73 | 2:40.32 | 18523 | 30554
3 | 6:47.30 | 2:53.20 | 30555 | 43549
4 | 9:40.50 | 7:46.70 | 43550 | 78569
5 | 17:27.45 | 4:54.38 | 78570 | 100657
6 | 22:22.08 | 3:46.07 | 100658 | 117614
7 | 26:08.15 | 4:33.35 | 117615 | 138124
8 | 30:41.50 | 3:03.35 | 138125 | 151884
9 | 33:45.10 | 3:33.53 | 151885 | 167912
10 | 37:18.63 | 2:29.30 | 167913 | 179117
11 | 39:48.18 | 4:45.20 | 179118 | 200512
12 | 44:33.38 | 4:55.07 | 200513 | 222644
13 | 49:28.45 | 6:35.55 | 222645 | 252324
14 | 56:04.25 | 2:54.18 | 252325 | 265392
15 | 58:58.43 | 3:35.00 | 265393 | 281517
16 | 62:33.43 | 1:47.25 | 281518 | 289567


Range status and errors

Selected range

Filename S:\EAC Rips\CLASSICAL\Mozart The Collection1\Mozart2\Mozart, Wolfgang Amadeus - Symphonie No24 KV182 No25 KV183 No26 KV184 No27 KV199 No32 KV318 - St Martin in the Fields - Marriner.wav

Peak level 78.1 %
Range quality 99.9 %
Test CRC 8BFE6F91
Copy CRC 8BFE6F91
Copy OK

No errors occurred


AccurateRip summary

Track 1 accurately ripped (confidence 2) [B583C1B2]
Track 2 accurately ripped (confidence 2) [0106318F]
Track 3 accurately ripped (confidence 2) [A5655504]
Track 4 accurately ripped (confidence 2) [3D97E043]
Track 5 accurately ripped (confidence 2) [E25572B1]
Track 6 accurately ripped (confidence 2) [BCFA9F98]
Track 7 accurately ripped (confidence 2) [7F791C97]
Track 8 accurately ripped (confidence 2) [99C86B95]
Track 9 accurately ripped (confidence 2) [A6F20DC6]
Track 10 accurately ripped (confidence 2) [ACACB884]
Track 11 accurately ripped (confidence 2) [1C7629A8]
Track 12 accurately ripped (confidence 2) [85C6664C]
Track 13 accurately ripped (confidence 2) [57C143EB]
Track 14 accurately ripped (confidence 2) [C4CDD4AC]
Track 15 accurately ripped (confidence 2) [0239B51C]
Track 16 accurately ripped (confidence 2) [67BA4818]

All tracks accurately ripped

End of status report[/CODE]


[size=4][COLOR="Blue"]Mozart - Symphonies 40 & 41 "Jupiter"[/COLOR][/SIZE]
tracks: 8 | ~ 292 Mb | 1:01:29

http://s2.imagestime.com/images.php/i4929_cd3.png


TRACKLIST
Symphony No.40 in D minor, K.550
01. I Molto allegro
02. II Andante
03. III Menuetto & Trio (Allegretto)
04. IV Finale (Allegro assai)

Symphony No.41 in C, K.551 "Jupiter"
05. I Allegro vivace
06. II Andante cantabile
07. III Menuetto (Allegretto)
08. IV Finale (Molto Allegro)

Academy St. Martin-in-the-Fields conducted by Sir Neville Marriner
Original Recording: 1986 & 1984

[COLOR="Red"]EAC log:[/COLOR]

[CODE]Exact Audio Copy V0.99 prebeta 5 from 4. May 2009

EAC extraction logfile from 12. March 2011, 11:10

Mozart / Symphonien 40 & 41

Used drive : HL-DT-STDVDRAM GH10N Adapter: 1 ID: 0

Read mode : Secure
Utilize accurate stream : Yes
Defeat audio cache : Yes
Make use of C2 pointers : No

Read offset correction : 667
Overread into Lead-In and Lead-Out : No
Fill up missing offset samples with silence : Yes
Delete leading and trailing silent blocks : No
Null samples used in CRC calculations : Yes
Used interface : Native Win32 interface for Win NT & 2000

Used output format : User Defined Encoder
Selected bitrate : 896 kBit/s
Quality : High
Add ID3 tag : No
Command line compressor : C:\Program Files\FLAC\flac.exe
Additional command line options : -V -5 -T "artist=%a" -T "title=%t" -T "album=%g" -T "date=%y" -T "tracknumber=%n" -T "genre=%m" -5 %s


TOC of the extracted CD

Track | Start | Length | Start sector | End sector
---------------------------------------------------------
1 | 0:00.00 | 7:25.45 | 0 | 33419
2 | 7:25.45 | 10:57.67 | 33420 | 82761
3 | 18:23.37 | 3:46.70 | 82762 | 99781
4 | 22:10.32 | 6:39.45 | 99782 | 129751
5 | 28:50.02 | 11:27.35 | 129752 | 181311
6 | 40:17.37 | 8:16.63 | 181312 | 218574
7 | 48:34.25 | 4:28.70 | 218575 | 238744
8 | 53:03.20 | 8:26.30 | 238745 | 276724


Range status and errors

Selected range

Filename S:\EAC Rips\CLASSICAL\Mozart The Collection1\Mozart3\Mozart - Symphonien 40 & 41.wav

Peak level 94.5 %
Range quality 100.0 %
Test CRC 8D9CB99A
Copy CRC 8D9CB99A
Copy OK

No errors occurred


AccurateRip summary

Track 1 accurately ripped (confidence 4) [6C772AD8]
Track 2 accurately ripped (confidence 3) [E1B62ED1]
Track 3 accurately ripped (confidence 3) [B06C4E42]
Track 4 accurately ripped (confidence 3) [73265969]
Track 5 accurately ripped (confidence 3) [878C9C03]
Track 6 accurately ripped (confidence 3) [232A5710]
Track 7 accurately ripped (confidence 3) [CC50FAA4]
Track 8 accurately ripped (confidence 3) [6451E6F5]

All tracks accurately ripped

End of status report[/CODE]


[size=4][COLOR="Blue"]Mozart - Violin Concertos No 1,2 & 5[/COLOR][/SIZE]
tracks: 9 | ~ 407 Mb | 1:14:26

http://s2.imagestime.com/images.php/i4930_cd4.png


TRACKLIST
Violin Concerto No.1 in B flat major, K.207
01. I Allegro moderato
02. II Adagio
03. III Presto
Violin Concerto No.2 in D major, K.211+
04. I Allegro moderato
05. II Andante
06. III Rondeau (allegro)

David Oistrakh, Violin
Berliner Philharmoniker directed by David Oistrakh
Original Recording: 1972

Violin Concerto No.5 in A, K.219
07. I Allegro aperto
08. II Adagio
09. III Rondeau (Tempo di menuetto - Allegro)

Frank Peter Zimmermann, Violin
Wurttembergisches Kammerorchester Heilbronn conducted by Jorg Faerber
Original Recording: 1984

[COLOR="Red"]EAC log:[/COLOR]

[CODE]Exact Audio Copy V0.99 prebeta 5 from 4. May 2009

EAC extraction logfile from 12. March 2011, 11:51

Various Artists / Mozart_Violin Concertos I, II, V

Used drive : HL-DT-STDVDRAM GH10N Adapter: 1 ID: 0

Read mode : Secure
Utilize accurate stream : Yes
Defeat audio cache : Yes
Make use of C2 pointers : No

Read offset correction : 667
Overread into Lead-In and Lead-Out : No
Fill up missing offset samples with silence : Yes
Delete leading and trailing silent blocks : No
Null samples used in CRC calculations : Yes
Used interface : Native Win32 interface for Win NT & 2000

Used output format : User Defined Encoder
Selected bitrate : 896 kBit/s
Quality : High
Add ID3 tag : No
Command line compressor : C:\Program Files\FLAC\flac.exe
Additional command line options : -V -5 -T "artist=%a" -T "title=%t" -T "album=%g" -T "date=%y" -T "tracknumber=%n" -T "genre=%m" -5 %s


TOC of the extracted CD

Track | Start | Length | Start sector | End sector
---------------------------------------------------------
1 | 0:00.32 | 8:02.00 | 32 | 36181
2 | 8:02.32 | 8:37.28 | 36182 | 74984
3 | 16:39.60 | 5:57.35 | 74985 | 101794
4 | 22:37.20 | 8:13.62 | 101795 | 138831
5 | 30:51.07 | 7:51.08 | 138832 | 174164
6 | 38:42.15 | 4:54.15 | 174165 | 196229
7 | 43:36.30 | 10:20.55 | 196230 | 242784
8 | 53:57.10 | 11:37.67 | 242785 | 295126
9 | 65:35.02 | 8:51.10 | 295127 | 334961


Range status and errors

Selected range

Filename S:\EAC Rips\CLASSICAL\Mozart The Collection1\Mozart4\Various Artists - Mozart_Violin Concertos I, II, V.wav

Peak level 95.0 %
Range quality 100.0 %
Test CRC 98889E34
Copy CRC 98889E34
Copy OK

No errors occurred


AccurateRip summary

Track 1 not present in database
Track 2 not present in database
Track 3 not present in database
Track 4 not present in database
Track 5 not present in database
Track 6 not present in database
Track 7 not present in database
Track 8 not present in database
Track 9 not present in database

None of the tracks are present in the AccurateRip database

End of status report[/CODE]


[size=4][COLOR="Blue"]Mozart - Piano Concertos No 23 & 24[/COLOR][/SIZE]
tracks: 6 | ~ 253 Mb | 56:13

http://s2.imagestime.com/images.php/i4931_cd5.png


TRACKLIST
Piano Concerto No.23 in A, K.488
01. I Allegro
02. II Allegro
03. III Allegro Assai

Christian Zacharias, Piano
Staatskapelle Dresden conducted by David Zinman
Original Recording: 1985

Piano Concerto No.24 in C minor, K.491

04. I Allegro
05. II Larghetto
06. III Allegretto

Christian Zacharias, Piano
Simfonieorchester Des Norddeutschen Rundfunks conducted by Gunter Wand
Original Recording: 1986

[COLOR="Red"]EAC log:[/COLOR]

[CODE]Exact Audio Copy V0.99 prebeta 5 from 4. May 2009

EAC extraction logfile from 12. March 2011, 14:22

Various Artists / Piano Concertos 23 and 24

Used drive : HL-DT-STDVDRAM GH10N Adapter: 1 ID: 0

Read mode : Secure
Utilize accurate stream : Yes
Defeat audio cache : Yes
Make use of C2 pointers : No

Read offset correction : 667
Overread into Lead-In and Lead-Out : No
Fill up missing offset samples with silence : Yes
Delete leading and trailing silent blocks : No
Null samples used in CRC calculations : Yes
Used interface : Native Win32 interface for Win NT & 2000

Used output format : User Defined Encoder
Selected bitrate : 896 kBit/s
Quality : High
Add ID3 tag : No
Command line compressor : C:\Program Files\FLAC\flac.exe
Additional command line options : -V -5 -T "artist=%a" -T "title=%t" -T "album=%g" -T "date=%y" -T "tracknumber=%n" -T "genre=%m" -5 %s


TOC of the extracted CD

Track | Start | Length | Start sector | End sector
---------------------------------------------------------
1 | 0:00.32 | 10:48.60 | 32 | 48691
2 | 10:49.17 | 6:38.23 | 48692 | 78564
3 | 17:27.40 | 7:52.52 | 78565 | 114016
4 | 25:20.17 | 13:39.23 | 114017 | 175464
5 | 38:59.40 | 7:45.10 | 175465 | 210349
6 | 46:44.50 | 9:28.72 | 210350 | 253021


Range status and errors

Selected range

Filename S:\EAC Rips\CLASSICAL\Mozart The Collection1\Mozart5\Various Artists - Piano Concertos 23 and 24.wav

Peak level 97.3 %
Range quality 100.0 %
Test CRC AC8B4E9D
Copy CRC AC8B4E9D
Copy OK

No errors occurred


AccurateRip summary

Track 1 not present in database
Track 2 not present in database
Track 3 not present in database
Track 4 not present in database
Track 5 not present in database
Track 6 not present in database

None of the tracks are present in the AccurateRip database

End of status report[/CODE]

Related torrents

Torrent NameAddedSizeSeedLeechHealth
1 Year+ - in Music1.04 GB00
1 Year+ - in Music1.18 GB00
1 Year+ - in Music9.26 GB00
1 Year+ - in Music169.63 MB00
1 Year+ - in Music393.12 MB01

Comments (0 Comments)




Please login or create a FREE account to post comments

Latest Searches

| cute teen trap | denzal park m4sonic dirt cheap into the light | broke girls web dl season 4 | MASK M A S K Mobile Armored Strike Kommand 1985 | brazzers december 07 | blind spot s02e11 | every snes rom | Straight From My Heart U N V | broke girls web dl | Rosanna Arquette The Wrong Man |