Quick Browse
Movies
TV shows
Music
Games
Applications
Anime
Other
Facebook
Advertising

Friends
Torrent Download
Movie4u
1337x.to
Torrent Downloads




Mr. & Mrs. Smith [1080 p - H264 - AC3 Ita - Eng] [TNT VILLAGE]


    Seeders : 43      Leechers : 46

Trackers List

Tracker NameLast CheckStatusSeedersLeechers




Torrent File Content (1 file)


     Mr. & Mrs. Smith [RIP]BR, 1080p, x264, DVD9, Ac3 ITA - AC3 ENG, Subs ITA.mkv -
7.95 GB



Description



[SIZE=16][color=blue] Mr. & Mrs. Smith[/SIZE][/color]

http://www.partenopress.com/wp-content/uploads/2009/10/mr-smith-e-signora-252x300.jpg


[color=green].: Technical Info :.[/color]

[color=black]Title:Mr. & Mrs. Smith
Country:USA
Year:2005
Genre:Azione/Commedia
Director:Doug Liman
Production:Akiva Goldsman, Arnon Milchan
Distribuiton:01 Distribution (Italia)
release date:02/12/2005
Cast:
Brad Pitt: John Smith
Angelina Jolie: Jane Smith
Vince Vaughn: Eddie
Adam Brody: Benjamin Danz
Kerry Washington: Jasmine
Keith David: Father
Chris Weitz: Martin Coleman
Rachael Huntley: Suzy Coleman
Michelle Monaghan: Gwen
Stephanie March: Julie - Membro N°1
Jennifer Morrison: Jade - Membro N°2
Theresa Barrera: Janet - Membro N°3
Perrey Reeves: Jessie - Membro N°4
Melanie Tolbert: Jamie - Membro N°5
[/color]

[color=green].:Plot:.[/color]

[color=black]John and Jane Smith are an ordinary suburban couple with an ordinary, lifeless suburban marriage. But each is hiding something the other would kill to know: Mr. and Mrs. Smith are actually highly paid, incredibly efficient assassins--and they work for competing organizations. Mr. and Mrs. Smith both .[/color]


[color=green].: Technical Report :.[/color]

[color=green].:General:.[/color]

[color=black]
General
Unique ID : 215038440836497508460027981265164808718 (0xA1C6E5B1878E028AA7EE2D0BB8B3B20E)
Complete name : N:\Mr. & Mrs. Smith [RIP]BR, 1080p, x264, DVD9, Ac3 ITA - AC3 ENG, Subs ITA.mkv
Format : Matroska
File size : 7.95 GiB
Duration : 1h 59mn
Overall bit rate : 9 484 Kbps
Encoded date : UTC 2010-09-04 15:13:27
Writing application : mkvmerge v4.2.0 ('No Talking') built on Aug 1 2010 22:50:30
Writing library : libebml v1.0.0 + libmatroska v1.0.0[/color]


[color=green]Video[/color]
[color=black]ID : 1
Format : AVC
Format/Info : Advanced Video Codec
Format profile : [email protected]
Format settings, CABAC : Yes
Format settings, ReFrames : 3 frames
Codec ID : V_MPEG4/ISO/AVC
Duration : 1h 59mn
Bit rate mode : Variable
Bit rate : 8 589 Kbps
Maximum bit rate : 40.0 Mbps
Width : 1 920 pixels
Height : 816 pixels
Display aspect ratio : 2.35:1
Frame rate : 23.976 fps
Color space : YUV
Chroma subsampling : 4:2:0
Bit depth : 8 bits
Scan type : Progressive
Bits/(Pixel*Frame) : 0.229
Stream size : 7.04 GiB (89%)
Title : Mr. & Mrs. Smith
Writing library : x264 core 104 r1703 cd21d05
[/color]


[color=green]Audio #1[/color]
[color=black]ID : 2
Format : AC-3
Format/Info : Audio Coding 3
Mode extension : CM (complete main)
Codec ID : A_AC3
Duration : 1h 59mn
Bit rate mode : Constant
Bit rate : 448 Kbps
Channel(s) : 6 channels
Channel positions : Front: L C R, Side: L R, LFE
Sampling rate : 48.0 KHz
Bit depth : 16 bits
Compression mode : Lossy
Delay relative to video : 20ms
Stream size : 384 MiB (5%)
Title : Italian AC3 5.1
Language : Italian[/color]


[color=green]Audio #2[/color]
[color=black]ID : 3
Format : AC-3
Format/Info : Audio Coding 3
Mode extension : CM (complete main)
Codec ID : A_AC3
Duration : 1h 59mn
Bit rate mode : Constant
Bit rate : 448 Kbps
Channel(s) : 6 channels
Channel positions : Front: L C R, Side: L R, LFE
Sampling rate : 48.0 KHz
Bit depth : 16 bits
Compression mode : Lossy
Delay relative to video : 20ms
Stream size : 384 MiB (5%)
Title : English AC3 5.1
Language : English[/color]


[color=green]Text #1[/color]
[color=black]ID: 4
Format : UTF-8
Codec ID : S_TEXT/UTF8
Codec ID/Info : UTF-8 Plain Text
Title : Sub Italian
Language : Italian[/color]


[color=green]Text #2[/color]
[color=black]ID : 5
Format : UTF-8
Codec ID : S_TEXT/UTF8
Codec ID/Info : UTF-8 Plain Text
Title : sub Eng
Language : English[/color]


[color=green]Text #3[/color]
[color=black]ID : 6
Format : UTF-8
Codec ID : S_TEXT/UTF8
Codec ID/Info : UTF-8 Plain Text
Title : sub ITA
Language : Italian[/color]



[color=green].:Screenshot:.[/color]


[URL=http://img193.imageshack.us/i/immaginejt.png/]
http://img193.imageshack.us/img193/3589/immaginejt.th.png
[/URL]
[URL=http://img199.imageshack.us/i/immagine2xyu.png/]
http://img199.imageshack.us/img199/8944/immagine2xyu.th.png
[/URL]
[URL=http://img853.imageshack.us/i/immagine4i.png/]
http://img853.imageshack.us/img853/2400/immagine4i.th.png
[/URL]
[URL=http://img508.imageshack.us/i/immagine5hn.png/]
http://img508.imageshack.us/img508/3246/immagine5hn.th.png
[/URL]
[URL=http://img836.imageshack.us/i/immagine6k.png/]
http://img836.imageshack.us/img836/9716/immagine6k.th.png
[/URL]

Related torrents

Torrent NameAddedSizeSeedLeechHealth
Verified torrent
1 Year+ - in Movies791.84 MB00
1 Year+ - in Movies1.46 GB111
5 months ago - in Movies1.96 GB556
6 months ago - in Movies1.54 GB00
Last Month - in Movies1.37 GB00

Comments (0 Comments)




Please login or create a FREE account to post comments

Latest Searches

| I Dont Wanna Live | r3hab ft nervo revolution | Carol zip | rose alleen | suicide squad 2016 extras | The Big Food Rescue Series | xxx porn full | NEW hindi dubbed 2016 | fast and the furious 7 1080p hindi | the diab |