Quick Browse
Movies
TV shows
Music
Games
Applications
Anime
Other
Facebook
Advertising

Friends
Torrent Download
Movie4u
1337x.to
Torrent Downloads




Verified torrent Mughal-E-Azam (1960) Hindi DvD 2CD Rip Xvid [email protected]


    Seeders : 1      Leechers : 0

Trackers List

Tracker NameLast CheckStatusSeedersLeechers
udp://tracker.openbittorrent.com:80/announce1 Year+success10
udp://tracker.coppersurfer.tk:801 Year+success00
http://bigfoot1942.sektori.org:6969/announce1 Year+success00
http://torrent.gresille.org/announce1 Year+success00
http://tracker.nwps.ws:6969/announce1 Year+success00
udp://open.demonii.com:1337/announce1 Year+success00
udp://9.rarbg.com:2710/announce1 Year+success00
http://tracker.trackerfix.com/announce1 Year+success00




Torrent File Content (4 files)


Mughal-E-Azam (1960) DvD - 2CD - Rip - Xvid - { XMR }
     Mughal-E-Azam (1960) DvD - 2CD - Rip - Xvid - { XMR }.avi -
1.37 GB

     Mughal - E - Azam.jpg -
1.97 MB

     1.JPG -
71.68 KB

     2.JPG -
54.01 KB



Description



[color=green][font=Georgia]General
Ripper : Rahul
Complete name : Mughal-E-Azam (1960)
Format : AVI
Format/Info : Audio Video Interleave
File size : 1.37 GiB
Duration : 3h 18mn
Overall bit rate : 984 Kbps
Writing application : VirtualDubMod 1.5.10.3 |
Writing library : VirtualDubMod build 2550/release

Video
ID : 0
Format : MPEG-4 Visual
Format profile : Advanced [email protected]
Format settings, BVOP : Yes
Format settings, QPel : No
Format settings, GMC : No warppoints
Format settings, Matrix : Default (H.263)
Codec ID : XVID
Codec ID/Hint : XviD
Duration : 3h 18mn
Bit rate : 588 Kbps
Width : 656 pixels
Height : 368 pixels
Display aspect ratio : 16:9
Frame rate : 29.970 fps
Color space : YUV
Chroma subsampling : 4:2:0
Bit depth : 8 bits
Scan type : Progressive
Bits/(Pixel*Frame) : 0.081
Stream size : 836 MiB (60%)
Writing library : XviD 1.2.1 (UTC 2008-12-04)

Audio
ID : 1
Format : AC-3
Format/Info : Audio Coding 3
Mode extension : CM (complete main)
Codec ID : 2000
Duration : 3h 18mn
Bit rate mode : Constant
Bit rate : 384 Kbps
Channel(s) : 6 channels
Channel positions : Front: L C R, Side: L R, LFE
Sampling rate : 48.0 KHz
Bit depth : 16 bits
Stream size : 546 MiB (39%)
Alignment : Split accross interleaves
Interleave, duration : 33 ms (1.00 video frame)
Interleave, preload duration : 500 ms
[/font][/color]

http://img440.imageshack.us/img440/271/2rm18js.jpg

http://img525.imageshack.us/img525/2337/24oy1xt.jpg

http://img248.imageshack.us/img248/6116/b49hmp.jpg

http://img580.imageshack.us/img580/6994/dxy5on.jpg

http://img196.imageshack.us/img196/8645/etw0vn.jpg

http://img137.imageshack.us/img137/6647/tzfoi.jpg


Related torrents

Torrent NameAddedSizeSeedLeechHealth
Verified torrent
1 Year+ - in Movies1.39 GB00
Verified torrent
1 Year+ - in Movies1.26 GB38
Verified torrent
1 Year+ - in Movies1.37 GB00
1 Year+ - in Movies1.1 GB2433
1 Year+ - in Movies1.36 GB25

Comments (0 Comments)




Please login or create a FREE account to post comments

Latest Searches

| fox hound disney | she s wicked | hairy pussy cumming | DorcelClub Nikita Bellucci Nikita prefers sex | Motorhead The Best Of Greatest Hits | digital nurse | due uomini e mezzo s 2 | live free or die hard r | perri piper daddy s girl | 24 completa |