Quick Browse
Movies
TV shows
Music
Games
Applications
Anime
Other
Facebook
Advertising

Friends
Torrent Download
Movie4u
1337x.to
Torrent Downloads




Verified torrent Music From The Pirates Of The Caribbean Trilogy [Eac Flac Cue] Soundtrack [TNT Village]


    Seeders : 7      Leechers : 32

Trackers List

Tracker NameLast CheckStatusSeedersLeechers




Torrent File Content (19 files)


Music from The Pirates of The Caribbean Trilogy
     01 - Moonlight Serenade.flac -
5.52 MB

     02 - To The Pirates' Cave,Skull and Crossbones.flac -
41.98 MB

     03 - Underwater March.flac -
18.15 MB

     04 - The Black Pearl,Will and Elizabeth.flac -
24.37 MB

     05 - Barbossa Is Hungry.flac -
23.84 MB

     06 - Davy Jones.flac -
15.34 MB

     07 - The Kraken.flac -
30.62 MB

     08 - Dinner Is Served.flac -
9.44 MB

     09 - Jack Sparrow.flac -
31.15 MB

     10 - I See Dead People in Boats.flac -
26.96 MB

     11 - Up Is Down.flac -
16.52 MB

     12 - What Shall We Die For.flac -
10.39 MB

     13 - I Don't Think Now Is The Best Time.flac -
67.76 MB

     14 - Drink Up Me Hearties.flac -
26.57 MB

     Back.jpg -
798.67 KB

     Cd.jpg -
251.7 KB

     Front.jpg -
551.7 KB

     Klaus Badelt & Hans Zimmer - Music from The Pirates of The Caribbean Trilogy.log -
5.59 KB

     Music from The Pirates of The Caribbean Trilogy.cue -
2.78 KB



Description



http://a.imageshack.us/img217/4812/copo.jpg



http://img687.imageshack.us/img687/323/frontoyap.jpg



http://a.imageshack.us/img820/5247/30376060.jpg


Compositore: Hans Zimmer, Klaus Badelt,
Orchestra: City Of Prague Philharmonic Orchestra, City Of Prague Philharmonic Choir
Uscita Album: 2007
Genere:Colonna Sonora
Etichetta: Silva America
N° Dischi:1
Tracce: 14
Formato: Flac
Fonte: Cd Originale

http://a.imageshack.us/img705/1737/trackg.jpg


http://img801.imageshack.us/img801/254/backkz.jpg


http://a.imageshack.us/img695/2946/datieac.jpg


Exact Audio Copy V0.99 prebeta 5 from 4. May 2009

EAC extraction logfile from 13. November 2010, 15:47

Klaus Badelt & Hans Zimmer / Music from The Pirates of The Caribbean Trilogy

Used drive : _NEC DVD_RW ND-4551A Adapter: 2 ID: 2

Read mode : Secure
Utilize accurate stream : Yes
Defeat audio cache : Yes
Make use of C2 pointers : No

Read offset correction : 48
Overread into Lead-In and Lead-Out : No
Fill up missing offset samples with silence : Yes
Delete leading and trailing silent blocks : No
Null samples used in CRC calculations : Yes
Used interface : Native Win32 interface for Win NT & 2000
Gap handling : Appended to previous track

Used output format : User Defined Encoder
Selected bitrate : 768 kBit/s
Quality : High
Add ID3 tag : No
Command line compressor : C:\Programmi\Exact Audio Copy\FLAC\FLAC.EXE
Additional command line options : -8 -V -T "artist=%a" -T "title=%t" -T "album=%g" -T "date=%y" -T "tracknumber=%n" -T "genre=%m" %s


TOC of the extracted CD

Track | Start | Length | Start sector | End sector
---------------------------------------------------------
1 | 0:00.00 | 1:19.36 | 0 | 5960
2 | 1:19.36 | 7:32.39 | 5961 | 39899
3 | 8:52.00 | 4:09.09 | 39900 | 58583
4 | 13:01.09 | 4:19.25 | 58584 | 78033
5 | 17:20.34 | 4:10.19 | 78034 | 96802
6 | 21:30.53 | 3:24.02 | 96803 | 112104
7 | 24:54.55 | 5:02.26 | 112105 | 134780
8 | 29:57.06 | 1:28.70 | 134781 | 141450
9 | 31:26.01 | 5:59.44 | 141451 | 168419
10 | 37:25.45 | 5:36.38 | 168420 | 193657
11 | 43:02.08 | 2:39.35 | 193658 | 205617
12 | 45:41.43 | 2:05.50 | 205618 | 215042
13 | 47:47.18 | 10:50.69 | 215043 | 263861
14 | 58:38.12 | 4:35.61 | 263862 | 284547


Track 1

Filename G:\Musica\01 - Moonlight Serenade.wav

Pre-gap length 0:00:02.00

Peak level 77.3 %
Track quality 100.0 %
Test CRC F04504F8
Copy CRC F04504F8
Accurately ripped (confidence 3) [5BBCD122]
Copy OK

Track 2

Filename G:\Musica\02 - To The Pirates' Cave,Skull and Crossbones.wav

Peak level 86.1 %
Track quality 100.0 %
Test CRC 6F5C9813
Copy CRC 6F5C9813
Accurately ripped (confidence 3) [DF74E357]
Copy OK

Track 3

Filename G:\Musica\03 - Underwater March.wav

Peak level 96.0 %
Track quality 100.0 %
Test CRC 1A99957E
Copy CRC 1A99957E
Accurately ripped (confidence 3) [A5A41DF8]
Copy OK

Track 4

Filename G:\Musica\04 - The Black Pearl,Will and Elizabeth.wav

Peak level 96.0 %
Track quality 99.9 %
Test CRC 15911FAA
Copy CRC 15911FAA
Accurately ripped (confidence 3) [BF732286]
Copy OK

Track 5

Filename G:\Musica\05 - Barbossa Is Hungry.wav

Peak level 96.0 %
Track quality 100.0 %
Test CRC 43CC7E8B
Copy CRC 43CC7E8B
Accurately ripped (confidence 3) [907334AF]
Copy OK

Track 6

Filename G:\Musica\06 - Davy Jones.wav

Peak level 96.0 %
Track quality 100.0 %
Test CRC 64C1F0AE
Copy CRC 64C1F0AE
Accurately ripped (confidence 3) [2BB35840]
Copy OK

Track 7

Filename G:\Musica\07 - The Kraken.wav

Pre-gap length 0:00:00.14

Peak level 95.3 %
Track quality 100.0 %
Test CRC 09B99871
Copy CRC 09B99871
Accurately ripped (confidence 3) [B229F9FC]
Copy OK

Track 8

Filename G:\Musica\08 - Dinner Is Served.wav

Peak level 96.0 %
Track quality 100.0 %
Test CRC 71955AE1
Copy CRC 71955AE1
Accurately ripped (confidence 3) [9FD3A248]
Copy OK

Track 9

Filename G:\Musica\09 - Jack Sparrow.wav

Peak level 96.0 %
Track quality 100.0 %
Test CRC 12132EAD
Copy CRC 12132EAD
Accurately ripped (confidence 3) [D2C04089]
Copy OK

Track 10

Filename G:\Musica\10 - I See Dead People in Boats.wav

Peak level 96.0 %
Track quality 100.0 %
Test CRC 43B796B7
Copy CRC 43B796B7
Accurately ripped (confidence 3) [34C8A380]
Copy OK

Track 11

Filename G:\Musica\11 - Up Is Down.wav

Pre-gap length 0:00:00.01

Peak level 96.0 %
Track quality 100.0 %
Test CRC 1DFAF843
Copy CRC 1DFAF843
Accurately ripped (confidence 3) [57368003]
Copy OK

Track 12

Filename G:\Musica\12 - What Shall We Die For.wav

Peak level 96.0 %
Track quality 100.0 %
Test CRC 54342533
Copy CRC 54342533
Accurately ripped (confidence 3) [6334BA7E]
Copy OK

Track 13

Filename G:\Musica\13 - I Don't Think Now Is The Best Time.wav

Peak level 96.0 %
Track quality 100.0 %
Test CRC E179D261
Copy CRC E179D261
Accurately ripped (confidence 3) [06575800]
Copy OK

Track 14

Filename G:\Musica\14 - Drink Up Me Hearties.wav

Peak level 96.0 %
Track quality 100.0 %
Test CRC E7147C5B
Copy CRC E7147C5B
Accurately ripped (confidence 3) [A95F6EC2]
Copy OK


All tracks accurately ripped

No errors occurred

End of status report


[align=center]
http://a.imageshack.us/img291/9048/comph.jpg


Klaus Badelt

Klaus Badelt (Francoforte sul Meno, 1968) è un compositore e autore di colonne sonore tedesco.
Collaboratore attivo di Hans Zimmer, un altro compositore di colonne sonore. I due utilizzano spesso lo stesso studio di registrazione situato a Santa Monica, California. L'incredibile stile armonico delle composizioni di questo grande musicista lo rendono un autore di straordinario talento.
Come aiuto compositore di Zimmer, Badelt ha contribuito alla realizzazione della straordinaria colonna sonora del film Il Gladiatore di Ridley Scott.
Data la sua estroversa attitudine collaborativa e la capacità di creare temi musicali profondi e originali, ci sono voci non ufficiali sul fatto che molti compositori di colonne sonore di film Hollywoodiani, attingano alla collaborazione di Badelt per elaborare nuove idee musicali.

Hans Zimmer

Hans Florian Zimmer (Francoforte sul Meno, 12 settembre 1957) è un compositore tedesco.
Vive negli Stati Uniti, ed è a capo del dipartimento musicale dello studio cinematografico DreamWorks.
Per quasi tre decenni, ha composto musiche di film di grande successo tra cui Rain man - L'uomo della pioggia, Il re leone, Il gladiatore, Allarme rosso, La sottile linea rossa, L'ultimo samurai, Pirati dei Caraibi: La maledizione della prima luna, Pirati dei Caraibi: La maledizione del forziere fantasma, Pirati dei Caraibi: Ai confini del mondo, Il codice da Vinci, Angeli e Demoni, Frost/Nixon - Il duello, Batman Begins, Il cavaliere oscuro, Inception, The Rock, Il principe d'Egitto, Spirit - Cavallo selvaggio, e tanti altri film che hanno avuto successo anche grazie alle sue musiche.
Sue le musiche di Call of Duty: Modern Warfare 2 uscito nel 2009.
Nello stesso anno, il maestro Hans Zimmer ha composto le musiche per ben 4 film di successo tra cui Angeli e Demoni e Sherlock Holmes. Per il film di Guy Ritchie, Zimmer ottiene una nomination all'Oscar.
Nel 2010 firma le colonne sonore di Inception (campioni d'incassi del regista di Batman Begins e Il Cavaliere Oscuro Christopher Nolan) e The Pacific per il quale vince un Emmy Awards (7 vinti), miniserie prodotta da Steven Spielberg e Tom Hanks.
Le sue opere sono notevoli per l'integrazione di musica elettronica con sonorità tradizionali e arrangiamenti orchestrali. Nella sua carriera ha vinto quattro Grammy Awards, due Golden Globe (su 9 nomination), un classico BRIT Award e un Oscar (su 8 nomination).
Inoltre Zimmer è stato anche classificato al numero 72 nella lista dei Top 100 geni viventi nel 2007.

[align=center]
http://a.imageshack.us/img707/9711/orchestra.jpg


City Of Prague Philharmonic Orchestra, City Of Prague Philharmonic Choir

The orchestra started out, after World War II, in 1947, as the in-house full orchestra regularly playing music for film, television and animation productions at the world famous Barrandov Film Studios, in Prague, as well as the historic Krátký Film productions (meaning "short film," in Czech), and the former Czechoslovak Television. At the time, it was somewhat smaller than today and it was called the Filmový symfonický orchestr (FISYO) (The Film Symphony Orchestra) or was sometimes known as the Film Symphony of Prague. Many wonderful international films were done by this orchestra in the early days. A good example came in 1986, during the grim and hard times of communism/socialism, when David Lynch first came to Prague and recorded the music for his film Blue Velvet. Additional recordings are made for film production companies such as Paramount, Sony, Lucasfilm and many others in the Smečky Sound Recording Studio. David Lynch returned again in 1997 to record his Lost Highway, and yet again in 2001 to record Mulholland Drive.
Fully privatized after the Velvet Revolution, today, the musicians and supporting professionals continue to play and record music together (usually every day of the week) for major international films, television series, CDs/DVDs, video games, and even ring tones - both for the Czech Republic market and for clients & media productions around the world.

Related torrents

Torrent NameAddedSizeSeedLeechHealth
2 months ago - in Movies8.69 GB114
Verified torrent
1 Year+ - in Music725.26 MB37
Verified torrent
1 Year+ - in Music328 MB22
Verified torrent
1 Year+ - in Music395.98 MB10
Verified torrent
1 Year+ - in Music265.35 MB13

Comments (0 Comments)




Please login or create a FREE account to post comments

Latest Searches

| hardcore full up | GangbangCreampie G87 | Codi Vore Sucking My First Cock | gundam free | SUICIDE SQUAD XXX 2016 | Immortal Love 2 The Price of a Miracle Collectors Edition ASG | Crave by R W Shannon epub | country towns | awanai tsumori no genki de ne | Snowden 2016 BluRay x264 SPARKS |