Quick Browse
Movies
TV shows
Music
Games
Applications
Anime
Other
Facebook
Advertising

Friends
Torrent Download
Movie4u
1337x.to
Torrent Downloads




Verified torrent My Last Five Girlfriends [DVD5] [ENG] [AC3] [Hannspree]


    Seeders : 1      Leechers : 73
Hash :6F2C9814015FC1FB6DA6533D968E74B3954E66BB
Added :1 Year+ by HannspreeVerified torrent uploader in Movies
Size :1.57 GB
Stream :WATCH ONLINE @ Movie4u


My Last Five Girlfriends [DVD5] [ENG] [AC3] [Hannspree]
Free and Fast Download with Usenet 300GB+ free







Trackers List

Tracker NameLast CheckStatusSeedersLeechers




Torrent File Content (13 files)


My Last Five Girlfriends
    My Last Five Girlfriends [DVD]
          VIDEO_TS/VIDEO_TS.BUP -
12 KB

          VIDEO_TS/VIDEO_TS.IFO -
12 KB

          VIDEO_TS/VIDEO_TS.VOB -
58 KB

          VIDEO_TS/VTS_01_0.BUP -
60 KB

          VIDEO_TS/VTS_01_0.IFO -
60 KB

          VIDEO_TS/VTS_01_0.VOB -
58 KB

          VIDEO_TS/VTS_01_1.VOB -
1023.97 MB

          VIDEO_TS/VTS_01_2.VOB -
585.15 MB

    My Last Five Girlfriends [Images]
          My Last 5 Girlfriends [Cover].jpg -
67.44 KB

          My Last 5 Girlfriends [Disc].jpg -
25.28 KB

          My Last 5 Girlfriends [Screens].jpg -
147.81 KB

     My Last Five Girlfriends.NFO -
3.57 KB

     Torrent downloaded from H33T.org.txt -
43 bytes



Description



=====================================================================================
[ Another free, high quality, ready to burn DVD I will be adding new torrents on a daily basis - Remember to seed ]
=====================================================================================
MOVIE TITLE: My Last Five Girlfriends
LANGUAGE: English
MOVIE SUBS: No
BURN TESTED: Yes
FORMAT: Pal
GENRE: Comedy
RUNTIME: 87 Minutes
YEAR: 2009
IMDB LINK: http://www.imdb.com/title/tt1050002/
=====================================================================================
MOVIE DESC:

Based on Alain de Botton's novel Essays in Love, this self-consciously smart romantic comedy begins with Duncan, a London architect, writing a farewell note, then recalling the assorted girls who drove him to suicide. Woody Allen is clearly Kemp's model, and the self-pitying protagonist sees his life as a theme park, recording his disastrous life as sideshows. The girls are attractive enough, though only Naomie Harris has much life, and the film's chief appeal is likely to reside in its numerous fashionable locations.
=====================================================================================
MOVIE SPECS:

GENERAL:
Complete name : My Last Five Girlfriends [DVD5]
Format : MPEG-PS
File size : 1.57 GB
Duration : 87 Minutes
Overall bit rate : 2 750 Kbps

VIDEO:
ID : 224 (0xE0)
Format : MPEG Video
Format version : Version 2
Format profile : [email protected]
Format settings, BVOP : Yes
Format settings, Matrix : Default
Duration : 87 Minutes
Bit rate mode : Variable
Bit rate : 2 503 Kbps
Nominal bit rate : 9 608 Kbps
Width : 720 pixels
Height : 576 pixels
Display aspect ratio : 16:9
Frame rate : 25.000 fps
Standard : PAL
Color space : YUV
Chroma subsampling : 4:2:0
Bit depth : 8 bits
Scan type : Progressive
Bits/(Pixel*Frame) : 0.241
Stream size : 932 MiB (91%)

AUDIO:
ID : 128 (0x80)
Format : AC-3
Format/Info : Audio Coding 3
Mode extension : CM (complete main)
Duration : 87 Minutes
Bit rate mode : Constant
Bit rate : 192 Kbps
Channel(s) : 2 channels
Channel positions : Front: L R
Sampling rate : 48.0 KHz
Stream size : 71.5 MiB (7%)
=====================================================================================
TRACKERS:
http://fr33dom.h33t.com:3310/announce
http://exodus.1337x.org/announce
http://tracker.ilibr.org/announce
http://tpb.tracker.prq.to/announce
http://red.tracker.prq.to/announce
http://tracker.openbittorrent.com/announce
http://gemini.tracker.prq.to/announce
http://11.rarbg.com/announce
=====================================================================================
[FOOT NOTE]
If you are happy with this download, it would be nice to hear your views or comments that you might have. Enjoy
=====================================================================================
Screen Shot Of My Last Five Girlfriends
=====================================================================================
http://leetpic.com/images/mylast5gir.jpg

=====================================================================================
http://torrent-stats.info/533d/4b0a28e5.png

=====================================================================================

Related torrents

Torrent NameAddedSizeSeedLeechHealth
Verified torrent
1 Year+ - in Movies1.22 GB00
Verified torrent
1 Year+ - in Movies2.94 GB1434
Verified torrent
1 Year+ - in Movies2.98 GB2018
Verified torrent
1 Year+ - in Movies3.83 GB179
Verified torrent
1 Year+ - in Movies3.58 GB1048

Comments (0 Comments)




Please login or create a FREE account to post comments

Latest Searches

| S T A L K E R Shadow of Chernobyl O F F L I F E 2012 PC RePack | mayhem esoteric flac | hans abrahamsen let me tell you | tears on my p | nathaniel hawthorn | S05E13 The Office s05e13 DVDRip | architecture of truth | I will if will | Of kings and of prophets 3 | acham enbathu madamaiyada |