Quick Browse
Movies
TV shows
Music
Games
Applications
Anime
Other
Facebook
Advertising

Friends
Torrent Download
Movie4u
1337x.to
Torrent Downloads




Verified torrent My Super Psycho Sweet 16 Part 2 2010 SATRiP XViD-TiCTaC


    Seeders : 8      Leechers : 0

Trackers List

Tracker NameLast CheckStatusSeedersLeechers




Torrent File Content (1 file)


My Super Psycho Sweet 16 Part 2 2010 SATRiP XViD-TiCTaC
     My Super Psycho Sweet 16 2 2010 SATRip TiCTaC.avi -
1.01 GB



Description



http://b.imagehost.org/0206/psycho-16.jpg


Plot:

Genre : Horror

Tagline : It's one killer party!

Plot : Just when she thought it was over, the party's just getting started.



Info:

[code]
My Super Psycho Sweet 16 2 2010 SATRip TiCTaC

6.9/10

Cast
Credited cast:
Matt Angel Matt Angel ...
Derek
Jennifer Sun Bell Jennifer Sun Bell ...
Molly
Claire Bronson Claire Bronson ...
Psychiatrist
Claire Bronson Claire Bronson ...
Psychartrist
Alexandra Chen Alexandra Chen ...
Student Body President
Myndy Crist Myndy Crist ...
Carolyn Bell
Julianna Guill Julianna Guill ...
Madison Penrose
Keith Allen Hayes Keith Allen Hayes
Devin Keaton Devin Keaton ...
James
Stella Maeve Stella Maeve ...
Zoe
Lauren McKnight Lauren McKnight ...
Skye Rotter
Reagan Michelle Reagan Michelle ...
Shot girl #1
Bridget Nichols Bridget Nichols ...
Shot Girl
Scott Poythress Scott Poythress ...
Used Car Dealer

Genres:
Horror

Country:
USA
Language:
English
Release Date:
22 October 2010 (USA)


General

Format : AVI
Format/Info : Audio Video Interleave
File size : 1.01 GiB
Duration : 1h 25mn
Overall bit rate : 1 690 Kbps
Writing application : Lavf52.13.0
Writing library : VirtualDub build 32817/release

Video
ID : 0
Format : MPEG-4 Visual
Format profile : Advanced [email protected]
Format settings, BVOP : Yes
Format settings, QPel : No
Format settings, GMC : No warppoints
Format settings, Matrix : Default (H.263)
Codec ID : DX50
Codec ID/Hint : DivX 5
Duration : 1h 25mn
Bit rate : 1 485 Kbps
Width : 720 pixels
Height : 432 pixels
Display aspect ratio : 16:9
Frame rate : 25.000 fps
Resolution : 8 bits
Colorimetry : 4:2:0
Scan type : Progressive
Bits/(Pixel*Frame) : 0.191
Stream size : 907 MiB (88%)
Writing library : Lavc51.54.0

Audio
ID : 1
Format : MPEG Audio
Format version : Version 1
Format profile : Layer 3
Mode : Joint stereo
Format_Settings_ModeExtension : MS Stereo
Codec ID : 55
Codec ID/Hint : MP3
Duration : 1h 25mn
Bit rate mode : Constant
Bit rate : 192 Kbps
Channel(s) : 2 channels
Sampling rate : 44.1 KHz
Stream size : 117 MiB (11%)
Alignment : Aligned on interleaves
Interleave, duration : 26 ms (0.65 video frame)
Interleave, preload duration : 522 ms
Writing library : LAME3.98 (beta)


[/code]


Screens:

http://img190.imageshack.us/img190/6034/vlcsnap6304746.png

http://img837.imageshack.us/img837/9021/vlcsnap6305352.png

http://img146.imageshack.us/img146/4195/vlcsnap6309992.png



Related torrents

Torrent NameAddedSizeSeedLeechHealth
1 Year+ - in TV shows700.76 MB02
1 Year+ - in TV shows700.77 MB01
1 Year+ - in Movies1.03 GB00
1 Year+ - in Other687.53 MB00
1 Year+ - in Other836.32 MB00

Comments (0 Comments)




Please login or create a FREE account to post comments

Latest Searches

| Poser Pro v11 0 5 | IT 1080p WEB DL DD5 1 H264 FGT 2016 | no one but u | stranded girl xxx | TOP 40 SINGLES 2016 11 us | civil war russian | Mirza ddr | 4 your eyez only J Cole full album | TOP 40 SINGLES 2016 12 us | Kylie minogue my |