Quick Browse
Movies
TV shows
Music
Games
Applications
Anime
Other
Facebook
Advertising

Friends
Torrent Download
Movie4u
1337x.to
Torrent Downloads




Verified torrent N4nd0 R31s 3 0s 1nf3rn4l - Dr35


    Seeders : 13      Leechers : 6
Hash :6306DEAD1E50817C3E62C145B7D82FA6785C759C
Added :1 Year+ by leoneneroVerified torrent uploader in Music - Music
Size :339.54 MB
Stream :WATCH ONLINE @ Movie4u


N4nd0 R31s 3 0s 1nf3rn4l - Dr35
Free and Fast Download with Usenet 300GB+ free







Trackers List

Tracker NameLast CheckStatusSeedersLeechers




Torrent File Content (17 files)


N4nd0 R31s 3 0s 1nf3rn4l - Dr35
     00._%NandoReis%_-_%Dres%.nfo -
2.13 KB

     01 - Nando Reis - Hi, Dri.flac -
26.42 MB

     02 - Nando Reis - Ainda Não Passou.flac -
23.75 MB

     03 - Nando Reis - Dres.flac -
31.06 MB

     04 - Nando Reis - Conta.flac -
34.77 MB

     05 - Nando Reis - Só Pra So.flac -
24.38 MB

     06 - Nando Reis - Mosaico Abstrato.flac -
34.15 MB

     07 - Nando Reis e Ana Cañas - Pra Você Guardei O Meu Amor.flac -
36.87 MB

     08 - Nando Reis - Livre Como Um Deus.flac -
38.84 MB

     09 - Nando Reis - Diariamente.flac -
19.89 MB

     10 - Nando Reis - Hoje Eu Te Pedi.flac -
24.5 MB

     11 - Nando Reis - Mil Galáxias.flac -
26.32 MB

     12 - Nando Reis - Baby, Eu Queria.flac -
18.48 MB

     Dres.cue -
1.96 KB

     Dres.log -
11.6 KB

     Folder.jpg -
93.83 KB

     Various - Drês.m3u -
467 bytes



Description



http://img198.imageshack.us/img198/2434/progettocover.jpg


http://img39.imageshack.us/img39/2230/6885352ggy.jpg

http://img39.imageshack.us/img39/2750/68853521ggzs.jpg


Título Original: Drês
Gênero: Rock
Intérprete: Nando Reis
Ano de Lançamento: 2009
Gravadora: Universal Music Ltda.
Time: 47 minutes 33 seconds

http://img98.imageshack.us/img98/9113/progettotracklist.jpg


1. Nando Reis - Hi, Dri [03.45]
2. Nando Reis - Ainda Não Passou [03.16]
3. Nando Reis - Drês [04.16]
4. Nando Reis - Conta [04.42]
5. Nando Reis - Só Pra So [03.25]
6. Nando Reis - Mosaico Abstrato [04.38]
7. Nando Reis e Ana Cañas - Pra Você Guardei O Meu Amor [05.43]
8. Nando Reis - Livre Como Um Deus [05.11]
9. Nando Reis - Diariamente [02.39]
10. Nando Reis - Hoje Eu Te Pedi [03.19]
11. Nando Reis - Mil Galáxias [03.33]
12. Nando Reis - Baby, Eu Queria [03.00]

http://img210.imageshack.us/img210/734/progettorecensione.jpgbr /


Dres è l'ottavo album da solista dal cantante e compositore brasiliano Nando Reis . Registrato nel 2009 e rilasciato il 22 maggio dello stesso anno, prodotto da Carlos Spot e Nando Reis e pubblicato dalla casa discografica Universal Music . La cantante Ana Cañas ha fatto un cameo nella fascia "Pra Você Guardei o Amor". La canzone "Ainda Não Passou" è stata nominata per un Grammy Latino come miglior canzone brasiliana del 2009.

Secondo Nando Reis, la parola DRÊS può significare qualsiasi cosa. Tuttavia, l'interpretazione più comune è la fusione del soprannome "Dri", (abbreviazione di Adriana, una sua ex fidanzata) con la parola "tres", che è il numero di tracce nell'album a lei dedicato (Hi, Dri!, Driamante e la title track). Bellissimo album, vale la pena averlo tra la vostra collezione. Buon ascolto

http://img121.imageshack.us/img121/5530/progettodescrizione.jpg

http://img256.imageshack.us/img256/6186/nandoreisbyjoseaugustod.gif

José Fernando Gomes dos Reis, conosciuto come Nando Reis ( San Paolo , 12 gennaio del 1963 ) è un cantante, chitarrista e compositore del Brasile. Ex bassista dei Titans, ora segue una carriera da solista, accompagnato dalla band Os Infernal. Gli piace il calcio, tifa per il Sao Paulo Football Club e ha una rubrica settimanale su questo argomento nel giornale O Estado de S. Paulo . Nel 2009 ha lanciato il libro per bambini "Il mio piccolo Saint-paolino", l'opera raffigura la passione di un fan del San Paolo Football Club e le conquiste del Tricolor Paulista.

http://img713.imageshack.us/img713/7143/progettodatitecnici.jpg

Exact Audio Copy V1.0 beta 1 from 15. November 2010

EAC extraction logfile from 6. November 2011, 16:06

Various / Drês

Used drive : HL-DT-STDVDRAM GSA-T40N Adapter: 0 ID: 0

Read mode : Secure
Utilize accurate stream : Yes
Defeat audio cache : No
Make use of C2 pointers : Yes

Read offset correction : 667
Overread into Lead-In and Lead-Out : No
Fill up missing offset samples with silence : Yes
Delete leading and trailing silent blocks : No
Null samples used in CRC calculations : No
Used interface : Native Win32 interface for Win NT & 2000
Gap handling : Not detected, thus appended to previous track

Used output format : User Defined Encoder
Selected bitrate : 768 kBit/s
Quality : High
Add ID3 tag : No
Command line compressor : c:\Users\leomarco\Contacts\Desktop\Exact Audio Copy\FLAC\FLAC.EXE
Additional command line options : -6 -V -T "ARTIST=%a" -T "TITLE=%t" -T "ALBUM=%g" -T "DATE=%y" -T "TRACKNUMBER=%n" -T "GENRE=%m" -T "COMMENT=%e" %j--picture="%i"%j %s -o %d


TOC of the extracted CD

Track | Start | Length | Start sector | End sector
---------------------------------------------------------
1 | 0:00.00 | 3:45.14 | 0 | 16888
2 | 3:45.14 | 3:16.49 | 16889 | 31637
3 | 7:01.63 | 4:16.46 | 31638 | 50883
4 | 11:18.34 | 4:42.06 | 50884 | 72039
5 | 16:00.40 | 3:25.60 | 72040 | 87474
6 | 19:26.25 | 4:38.46 | 87475 | 108370
7 | 24:04.71 | 5:43.61 | 108371 | 134156
8 | 29:48.57 | 5:11.34 | 134157 | 157515
9 | 35:00.16 | 2:39.38 | 157516 | 169478
10 | 37:39.54 | 3:19.47 | 169479 | 184450
11 | 40:59.26 | 3:33.50 | 184451 | 200475
12 | 44:33.01 | 3:00.28 | 200476 | 214003
13 | 50:05.29 | 6:38.55 | 225404 | 255308


Track 1

Filename C:\Users\leomarco\Contacts\Desktop\01 - Nando Reis - Hi, Dri.flac

Peak level 97.7 %
Extraction speed 8.7 X
Track quality 100.0 %
Test CRC 7B70927D
Copy CRC 7B70927D
Accurately ripped (confidence 1) [50384344]
Copy OK

Track 2

Filename C:\Users\leomarco\Contacts\Desktop\02 - Nando Reis - Ainda Não Passou.flac

Peak level 97.7 %
Extraction speed 9.4 X
Track quality 99.8 %
Test CRC 50F21958
Copy CRC 50F21958
Accurately ripped (confidence 1) [18AF4E22]
Copy OK

Track 3

Filename C:\Users\leomarco\Contacts\Desktop\03 - Nando Reis - Drês.flac

Peak level 97.7 %
Extraction speed 11.1 X
Track quality 100.0 %
Test CRC 80DDA8C4
Copy CRC 80DDA8C4
Accurately ripped (confidence 1) [5C4F6B96]
Copy OK

Track 4

Filename C:\Users\leomarco\Contacts\Desktop\04 - Nando Reis - Conta.flac

Peak level 97.7 %
Extraction speed 11.5 X
Track quality 99.9 %
Test CRC 15A3E27D
Copy CRC 15A3E27D
Accurately ripped (confidence 1) [4659C715]
Copy OK

Track 5

Filename C:\Users\leomarco\Contacts\Desktop\05 - Nando Reis - Só Pra So.flac

Peak level 97.7 %
Extraction speed 12.1 X
Track quality 100.0 %
Test CRC 0C55898F
Copy CRC 0C55898F
Accurately ripped (confidence 1) [7E7E4C93]
Copy OK

Track 6

Filename C:\Users\leomarco\Contacts\Desktop\06 - Nando Reis - Mosaico Abstrato.flac

Peak level 97.7 %
Extraction speed 13.8 X
Track quality 100.0 %
Test CRC BA9F8BD5
Copy CRC BA9F8BD5
Accurately ripped (confidence 1) [F70B6880]
Copy OK

Track 7

Filename C:\Users\leomarco\Contacts\Desktop\07 - Nando Reis e Ana Cañas - Pra Você Guardei O Meu Amor.flac

Peak level 97.7 %
Extraction speed 14.2 X
Track quality 100.0 %
Test CRC 1393A408
Copy CRC 1393A408
Accurately ripped (confidence 1) [22E71C56]
Copy OK

Track 8

Filename C:\Users\leomarco\Contacts\Desktop\08 - Nando Reis - Livre Como Um Deus.flac

Peak level 97.7 %
Extraction speed 15.7 X
Track quality 100.0 %
Test CRC D87A70A3
Copy CRC D87A70A3
Accurately ripped (confidence 1) [E134126E]
Copy OK

Track 9

Filename C:\Users\leomarco\Contacts\Desktop\09 - Nando Reis - Diariamente.flac

Peak level 97.7 %
Extraction speed 16.2 X
Track quality 100.0 %
Test CRC B02EB1BA
Copy CRC B02EB1BA
Accurately ripped (confidence 1) [C25FF4D1]
Copy OK

Track 10

Filename C:\Users\leomarco\Contacts\Desktop\10 - Nando Reis - Hoje Eu Te Pedi.flac

Peak level 97.7 %
Extraction speed 16.8 X
Track quality 100.0 %
Test CRC E48D4237
Copy CRC E48D4237
Accurately ripped (confidence 1) [47E437E8]
Copy OK

Track 11

Filename C:\Users\leomarco\Contacts\Desktop\11 - Nando Reis - Mil Galáxias.flac

Peak level 97.7 %
Extraction speed 17.3 X
Track quality 100.0 %
Test CRC 09BFDC17
Copy CRC 09BFDC17
Accurately ripped (confidence 1) [BB26FDA0]
Copy OK

Track 12

Filename C:\Users\leomarco\Contacts\Desktop\12 - Nando Reis - Baby, Eu Queria.flac

Peak level 97.7 %
Extraction speed 16.3 X
Track quality 100.0 %
Test CRC 22AC852E
Copy CRC 22AC852E
Accurately ripped (confidence 1) [DF93A0AD]
Copy OK


All tracks accurately ripped

No errors occurred

End of status report

==== Log checksum 446D07C14C6DA8610D4D938205DB36DF9EAE19051FCA1C4F48EE49FF3C95DA14 ====

http://img521.imageshack.us/img521/763/progettobandaeseed.jpg

Per i primi 10: 24 su 24:80/90 Kb/s

Related torrents

Torrent NameAddedSizeSeedLeechHealth
17 days ago - in Games1.58 GB1312
20 days ago - in Games1.59 GB00
8 months ago - in Other1.09 GB00
11 months ago - in Other15.4 MB10
11 months ago - in Other418.83 MB00

Comments (0 Comments)




Please login or create a FREE account to post comments

Latest Searches

| step sister web cam | Arrow S05E08 720p HDTV 2CH x265 | Mummy 3 dual audio Hindi eng | John Legend Darkness Light | Zus 2 | Ink Master S08E06 HDTV x264 | what happens tonight | Fitness Fox Aidra Fox 1080p | Makaveli The Don Killuminati 7 Day Theory | i did my mom |