Quick Browse
Movies
TV shows
Music
Games
Applications
Anime
Other

Donate and Support

Friends
Torrents.me
Torrent Download
Free Movies
1337x
RARBG
Torrent Downloads

Verified torrent NE-YO - One In A Million [KingPinVideos]


    Seeders : 62      Leechers : 3
Hash :F3DFDCC073C59BB282AAC2C9D3EBE240786E7316
Added :1 Year+ by KingPinVerified torrent uploader in Music - Music Videos
Size :82.34 MB
Stream :Watch Full Movies Online @ Movie4u
Share :


NE-YO - One In A Million [KingPinVideos]
Anonymous and Direct Download 300GB+ free







Warning! Do not Download Torrents Without a VPN!
Your IP Address is .   And Location is
Your Internet Provider and Government can track your torrent Activity!  Hide your IP ADDRESS with a VPN!
We Strongly Recommend Using SpyOFF Torrent VPN to Anonymize your Torrenting. It's FREE For 15 Days!

Note :

Please Update (Trackers Info) Before Downloading Torrents to See Updated Seeders And Leechers for Batter Download Speed.

Trackers List

Tracker NameLast CheckStatusSeedersLeechers




Torrent File Content (5 files)


NE-YO - One In A Million [KingPinVideos]
     NE-YO - One In A Million [KingPinVideos].mpg -
82.33 MB

     NE-YO - One In A Million [KingPinVideos].nfo -
1.81 KB

     NE-YO - One In A Million [KingPinVideos].txt -
1.63 KB

     Torrent downloaded from Demonoid.com.txt -
47 bytes

     Torrent Downloaded from Limetorrents.com.txt -
46 bytes



Description



http://a.imageshack.us/img96/7834/neyoone.png


http://a.imageshack.us/img16/1130/neyoone2.png


[code]General
Complete name : NE-YO - One In A Million [KingPinVideos].mpg
Format : MPEG-PS
File size : 82.3 MiB
Duration : 4mn 1s
Overall bit rate : 2 856 Kbps
Writing library : encoded by TMPGEnc 4.0 XPress Version. 4.7.4.299

Video
ID : 224 (0xE0)
Format : MPEG Video
Format version : Version 1
Format settings, BVOP : Yes
Format settings, Matrix : Default
Duration : 4mn 1s
Bit rate mode : Constant
Bit rate : 2 615 Kbps
Nominal bit rate : 2 700 Kbps
Width : 384 pixels
Height : 208 pixels
Display aspect ratio : 16:9
Frame rate : 29.970 fps
Resolution : 8 bits
Scan type : Progressive
Bits/(Pixel*Frame) : 1.092
Stream size : 75.4 MiB (92%)
Writing library : TMPGEnc XPress 4.7.4.299

Audio
ID : 192 (0xC0)
Format : MPEG Audio
Format version : Version 1
Format profile : Layer 2
Duration : 4mn 1s
Bit rate mode : Constant
Bit rate : 128 Kbps
Channel(s) : 2 channels
Sampling rate : 48.0 KHz
Stream size : 3.69 MiB (4%)[/code]

MAKE SURE TO CHECK OUT OUR SITE FOR DIRECT DOWNLOAD AND MORE VIDEOS, UPDATED EVERYDAY!

Related torrents

Torrent NameAddedSizeSeedLeechHealth
1 Year+ - in Movies132.07 MB00
1 Year+ - in Other10.02 MB12
1 Year+ - in Other8.63 MB13
2 months ago - in Other1.82 GB00
2 months ago - in Other1.13 GB00

Comments (0 Comments)




Please login or create a FREE account to post comments

Latest Searches

| amateurs 81 | The Gods Must Be Crazy 1989 | 1 Nenokkadine Hindi | animal walpaper | boom ft t pain | the full monty ita | alex grey xxx porn | Melisa POV SAL019 | Rear Window 1954 720p HDTV x264 TSE | books legal thriller |