Quick Browse
Movies
TV shows
Music
Games
Applications
Anime
Other
Facebook
Advertising

Friends
Torrent Download
Movie4u
1337x.to
Torrent Downloads




Verified torrent Naan Mahan Alla (2010) Tamil 1CD Xvid [email protected]


    Seeders : 55      Leechers : 22

Trackers List

Tracker NameLast CheckStatusSeedersLeechers




Torrent File Content (2 files)


Naan Mahan Alla (2010) 1CD Xvid Mp3(www.mastitorrents.com)
     Naan Mahan Alla (2010) 1CD Xvid Mp3(www.mastitorrents.com).avi -
686.57 MB

     Torrent Downloaded From www.mastitorrents.com.txt -
312 bytes



Description



Starring: Karthi,Kajal Aggarwal,Jayaprakash,Soori
Directed: Suseenthiran
Produced: K. E. Gnanavelraja, S. R. Prakash Babu,S. R. Prabhu
Written: Suseenthiran, Bhaskar Sakthi
Music :Yuvan Shankar Raja

Format : AVI
Format/Info : Audio Video Interleave
Format profile : OpenDML
File size : 687 MiB
Duration : 2h 6mn
Overall bit rate : 761 Kbps
Writing application : AVI-Mux GUI 1.17.8.3, Feb 16 201019:42:50 Video
ID : 0
Format : MPEG-4 Visual
Format profile : Advanced [email protected]
Format settings, BVOP : Yes
Format settings, QPel : Yes
Format settings, GMC : No warppoints
Format settings, Matrix : Default (H.263)
Codec ID : XVID
Codec ID/Hint : XviD
Duration : 2h 6mn
Bit rate : 648 Kbps
Width : 608 pixels
Height : 272 pixels
Display aspect ratio : 2.25:1
Frame rate : 29.970 fps
Color space : YUV
Chroma subsampling : 4:2:0
Bit depth : 8 bits
Scan type : Progressive
Bits/(Pixel*Frame) : 0.131
Stream size : 585 MiB (85%)
Writing library : XviD 1.2.1 (UTC 2008-12-04) Audio ID : 1
Format : MPEG Audio
Format version : Version 1
Format profile : Layer 3
Mode : Joint stereo
Mode extension : MS Stereo
Codec ID : 55
Codec ID/Hint : MP3
Duration : 2h 6mn
Bit rate mode : Variable
Bit rate : 104 Kbps
Nominal bit rate : 112 Kbps
Channel(s) : 2 channels
Sampling rate : 44.1 KHz
Stream size : 93.6 MiB (14%)
Alignment : Aligned on interleaves


http://img836.imageshack.us/img836/1286/110tri.jpg

http://img805.imageshack.us/img805/1811/111fpo.jpg

http://img291.imageshack.us/img291/2143/56841785.jpg

http://img832.imageshack.us/img832/5492/59945902.jpg

http://img265.imageshack.us/img265/2834/78934301.jpg

http://img137.imageshack.us/img137/1160/89315817.jpg


Related torrents

Torrent NameAddedSizeSeedLeechHealth
4 months ago - in Other699.73 MB00
1 Year+ - in Movies2.21 GB65
1 Year+ - in Movies700.68 MB42
10 months ago - in Movies7.95 GB00
1 Year+ - in Movies2.21 GB10

Comments (0 Comments)




Please login or create a FREE account to post comments

Latest Searches

| I have a Angel | Frenzy aka abluka | hot legs and feet young | Core Collection Volume | Dani Daniels Ryan Ryans Nothing But Heat | Club Playlist Vol 3 | the unforgiven pt 2 | faithless one step too far | hot legs and feet allison | 21 sextury nilla2 |