Quick Browse
Movies
TV shows
Music
Games
Applications
Anime
Other
Facebook
Advertising

Friends
Torrent Download
Movie4u
1337x.to
Torrent Downloads




Nanny McPhee 2005 720p Dual Audio [Eng-Hindi]~Alan (HDDR Release)


    Seeders : 1      Leechers : 0

Trackers List

Tracker NameLast CheckStatusSeedersLeechers




Torrent File Content (8 files)


Nanny McPhee 2005 720p Dual Audio [Eng-Hindi]~Alan (HDDR Release)
    Sample
          Sample.mkv -
20.02 MB

    Covers
          Nanny McPhee Back.bmp -
852.59 KB

          Nanny McPhee Front.jpg -
550.3 KB

          Torrent downloaded from Demonoid.me.txt -
46 bytes

          Torrent Downloaded from Limetorrents.com.txt -
46 bytes

     Nanny McPhee 2005 720p Dual Audio [Eng-Hindi]~Alan (HDDR Release).mkv -
2.22 GB

     INFO.nfo -
3.15 KB

     JOIN IN FACE BOOK N ORKUT..txt -
695 bytes



Description



http://img6.imageshack.us/img6/1323/faraz.png


http://www.leetleech.org/images/35102130244925591742.jpg


http://img94.imageshack.us/img94/3343/25ic0hd1.png


Release Title: Nanny McPhee 2005

Release Date: 27 January 2006 (USA)

Film Length: 1:38:27

Tagline: You'll Learn To Love Her. Warts And All.

Storyline: Mr. Cedric Brown has just lost his wife and is now left with his seven children who misbehave so much that all the nannies have run away. Now he is told by a mysterious voice that he should get Nanny McPhee who is a magical woman with special powers.

http://img90.imageshack.us/img90/4783/9k1gty1.png


Emma Thompson ... Nanny McPhee
Colin Firth ... Cedric Brown
Kelly Macdonald ... Evangeline
Thomas Brodie-Sangster ... Simon Brown (as Thomas Sangster)
Eliza Bennett ... Tora Brown
Raphaƫl Coleman ... Eric Brown
Jennifer Rae Daykin ... Lily Brown
Samuel Honywood ... Sebastian Brown
Holly Gibbs ... Christianna Brown
Hebe Barnes ... Baby Agatha Brown
Zinnia Barnes ... Baby Agatha Brown
Angela Lansbury ... Aunt Adelaide
Celia Imrie ... Selma Quickly
Imelda Staunton ... Mrs. Blatherwick
Elizabeth Berrington ... Letitia

http://img682.imageshack.us/img682/4868/zvbzx21.png


Genre: Comedy | Family | Fantasy
Format: Matroska
File size: 2.22 GiB
Duration: 1h 38mn
Overall bit rate: 3 226 Kbps
Movie name: Nanny McPhee 2005 720p Dual Audio [Eng-Hindi]~Alan (HDDR Release)
Language: English and Hindi
Ripper: Alan

http://img518.imageshack.us/img518/241/windowsmediaplayerfile.png

Video
ID: 1
Format: AVC
Format/Info: Advanced Video Codec
Format profile: [email protected]
Format settings, CABAC: Yes
Format settings, ReFrames: 4 frames
Muxing mode: Header stripping
Codec ID: V_MPEG4/ISO/AVC
Duration: 1h 38mn
Bit rate: 2 458 Kbps
Width: 1 280 pixels
Height: 544 pixels
Display aspect ratio: 2.35:1
Frame rate: 23.976 fps
Color space: YUV
Chroma subsampling: 4:2:0
Bit depth: 8 bits
Scan type: Progressive
Bits/(Pixel*Frame): 0.147
Stream size: 1.65 GiB (74%)
Title: Alan
Writing library: x264 core 115 r1995 c1e60b9
Language: English

http://img248.imageshack.us/img248/6613/musicfile1.png

Audio #1
ID: 2
Format: AC-3
Format/Info: Audio Coding 3
Mode extension: CM (complete main)
Muxing mode: Header stripping
Codec ID: A_AC3
Duration: 1h 38mn
Bit rate mode: Constant
Bit rate: 448 Kbps
Channel(s): 6 channels
Channel positions: Front: L C R, Side: L R, LFE
Sampling rate: 48.0 KHz
Bit depth: 16 bits
Compression mode: Lossy
Stream size: 316 MiB (14%)
Title: Alan
Language: English

http://img248.imageshack.us/img248/6613/musicfile1.png

Audio #2
ID: 3
Format: AC-3
Format/Info: Audio Coding 3
Mode extension: CM (complete main)
Muxing mode: Header stripping
Codec ID: A_AC3
Duration: 1h 38mn
Bit rate mode: Constant
Bit rate: 320 Kbps
Channel(s): 2 channels
Channel positions: Front: L R
Sampling rate: 48.0 KHz
Bit depth: 16 bits
Compression mode: Lossy
Delay relative to video: 4ms
Stream size: 225 MiB (10%)
Title Alan
Language: Hindi

http://img52.imageshack.us/img52/7996/ogtw21.gif


http://www.leetleech.org/images/10766406443753035469.png

http://www.leetleech.org/images/34217916114613990883.png

http://www.leetleech.org/images/70814926881592314411.png

http://www.leetleech.org/images/22796055210432236440.png

http://www.leetleech.org/images/47894182767917746430.png

http://www.leetleech.org/images/82736919717924092373.png

http://www.leetleech.org/images/91989334843347313411.png

http://www.leetleech.org/images/59346686897141472597.png


http://img408.imageshack.us/img408/4206/slqp2p1.gif



http://img265.imageshack.us/img265/1013/nlx4ysjpg.gif

Related torrents

Torrent NameAddedSizeSeedLeechHealth
1 Year+ - in Anime2.23 GB10
1 Year+ - in Movies2.21 GB10
1 Year+ - in Movies2.15 GB21
1 Year+ - in Movies955.66 MB10
1 Year+ - in Movies1.43 GB10

Comments (0 Comments)




Please login or create a FREE account to post comments

Latest Searches

| la bicicleta shakira i carlos vives | Raw 14 2013 DVDRip | Skin Diamond Nyomi Banxxx Lesbians In Charge Scene 1 SweetHeartVideo 2012 HD | MegaPack XXX 2009 2016 | armin van buuren together alexander popov remix | Da Vincis Demons Season 1 HDTV x265 AAC E Subs GWC | John de Wolf Jeroen Siebelink De Wolf John | Samson You I | Keiran Lee Michael Vegas Jenna Ivory | tutu 2015 |