Quick Browse
Movies
TV shows
Music
Games
Applications
Anime
Other
Facebook
Advertising

Friends
Torrent Download
Movie4u
1337x.to
Torrent Downloads




Verified torrent Newlyweds 2011 DVDSCR XviD AC3-26K


    Seeders : 1      Leechers : 0
Hash :4529AABA0BDA21626A28A536823CF11360C54A37
Added :1 Year+ by memory100Verified torrent uploader in Movies
Size :1.13 GB
Stream :WATCH ONLINE @ Movie4u


Newlyweds 2011 DVDSCR XviD AC3-26K
Free and Fast Download with Usenet 300GB+ free







Trackers List

Tracker NameLast CheckStatusSeedersLeechers




Torrent File Content (7 files)


Newlyweds 2011 DVDSCR XviD AC3-26K
     sample.avi -
39.7 MB

     sceneunderground.org.txt -
77 bytes

     att-networks.com.txt -
39 bytes

     Torrent downloaded from Demonoid.me.txt -
46 bytes

     Newlyweds 2011 DVDSCR XviD AC3-26K.avi -
1.09 GB

     Newlyweds 2011 DVDSCR XviD AC3-26K.nfo -
3.43 KB

     HDSceneRG.txt -
115 bytes



Description



http://img266.imageshack.us/img266/1120/newly.jpg

[code]
Newlyweds 2011 DVDSCR XviD AC3-26K

Imdb:
http://www.imdb.com/title/tt1880418/

Plot:
Newlyweds Buzzy and Katie find their blissful life disrupted by the arrival of his half-sister and news of her sister's marriage troubles.

Sources:
WARLORD THNXS

Notes:
The encoded video from the source by warlord was yet again a poor attempt as the video quality was bad.! so here is my attempt :) i have added few filters to the video to make it look much nicer!! as you all know it wont be perfect due to the source so do not moan about quality.. you get this for free :)

Greetz:
Xtreme Encode|FYA|ILLUMANTI|CM8|RX|VISION|HDSCENE|NIGHTMAREZ|xTriLL|DTRG|CRYS|REMIXHD|BIDA|RX|REFILL|INSPiRAL|SIC
To all the people who have helped me :P you know who you are

Anything to offer email us @: [email protected]

Video
ID : 0
Format : MPEG-4 Visual
Format profile : Advanced [email protected]
Format settings, BVOP : 2
Format settings, QPel : No
Format settings, GMC : No warppoints
Format settings, Matrix : Default (H.263)
Codec ID : XVID
Codec ID/Hint : XviD
Duration : 1h 35mn
Bit rate : 1 500 Kbps
Width : 584 pixels
Height : 328 pixels
Display aspect ratio : 16:9
Frame rate : 23.976 fps
Color space : YUV
Chroma subsampling : 4:2:0
Bit depth : 8 bits
Scan type : Progressive
Compression mode : Lossy
Bits/(Pixel*Frame) : 0.327
Stream size : 1.00 GiB (92%)
Writing library : XviD 63

Audio
ID : 1
Format : AC-3
Format/Info : Audio Coding 3
Mode extension : CM (complete main)
Codec ID : 2000
Duration : 1h 35mn
Bit rate mode : Constant
Bit rate : 128 Kbps
Channel(s) : 2 channels
Channel positions : Front: L R
Sampling rate : 48.0 KHz
Bit depth : 16 bits
Compression mode : Lossy
Stream size : 87.4 MiB (8%)
Alignment : Aligned on interleaves
Interleave, duration : 32 ms (0.77 video frame)

[/code]
Screens:
http://img140.imageshack.us/img140/6163/vlcsnap2012011213h41m12.png

http://img100.imageshack.us/img100/8461/vlcsnap2012011213h41m16.png

http://img692.imageshack.us/img692/5387/vlcsnap2012011213h41m20.png

http://img265.imageshack.us/img265/2905/vlcsnap2012011213h41m39.png

http://img525.imageshack.us/img525/9311/vlcsnap2012011213h41m44.png



http://img851.imageshack.us/img851/5503/26ks.jpg
#
Thank you smallz for banner!

Related torrents

Torrent NameAddedSizeSeedLeechHealth
1 Good
Verified torrent
1 Year+ - in Movies1.66 GB1,8354,828
Verified torrent
1 Year+ - in Movies1.93 GB10
1 Year+ - in Movies2.24 GB5547
Verified torrent
1 Year+ - in Movies2.24 GB00
1 Year+ - in Movies1.86 GB00

Comments (0 Comments)




Please login or create a FREE account to post comments

Latest Searches

| jelly Roll Lil wyte no filter 2 | een gelukkig jaar | tokyo ghoul r | Max Steel 2016 720p dual audio | C C Monroe | Supergirl S02e08 | i do i did 2009 | Babylon 5 remux | DOWNLOAD MP3 Lil Kesh | gucci mane x future mixtape |