Quick Browse
Movies
TV shows
Music
Games
Applications
Anime
Other
Facebook
Advertising

Friends
Torrent Download
Movie4u
1337x.to
Torrent Downloads




Verified torrent Nicki Minaj - Right Thru Me [KingPinVideos]


    Seeders : 308      Leechers : 16
Hash :2918D04F59E43E5F9408DA1B9D79A8A137F62E18
Added :1 Year+ by KingPinVerified torrent uploader in Music - Music Videos
Size :107.62 MB
Stream :WATCH ONLINE @ Movie4u


Nicki Minaj - Right Thru Me [KingPinVideos]
Free and Fast Download with Usenet 300GB+ free







Trackers List

Tracker NameLast CheckStatusSeedersLeechers




Torrent File Content (5 files)


Nicki Minaj - Right Thru Me [KingPinVideos]
     Nicki Minaj - Right Thru Me [KingPinVideos].mpg -
107.61 MB

     Nicki Minaj - Right Thru Me [KingPinVideos].nfo -
2.09 KB

     Nicki Minaj - Right Thru Me [KingPinVideos].txt -
1.63 KB

     Torrent downloaded from Demonoid.com.txt -
47 bytes

     Torrent Downloaded from Limetorrents.com.txt -
46 bytes



Description



http://img153.imageshack.us/img153/6959/nickiminajrightthru.png


http://img176.imageshack.us/img176/9292/nickiminajrightthu2.png


[code]General
Complete name : Nicki Minaj - Right Thru Me [KingPinVideos].mpg
Format : MPEG-PS
File size : 108 MiB
Duration : 5mn 16s
Overall bit rate : 2 856 Kbps
Writing library : encoded by TMPGEnc 4.0 XPress Version. 4.7.4.299

Video
ID : 224 (0xE0)
Format : MPEG Video
Format version : Version 1
Format settings, BVOP : Yes
Format settings, Matrix : Default
Duration : 5mn 16s
Bit rate mode : Constant
Bit rate : 2 615 Kbps
Nominal bit rate : 2 700 Kbps
Width : 384 pixels
Height : 208 pixels
Display aspect ratio : 16:9
Frame rate : 29.970 fps
Resolution : 8 bits
Scan type : Progressive
Bits/(Pixel*Frame) : 1.092
Stream size : 98.5 MiB (92%)
Writing library : TMPGEnc XPress 4.7.4.299

Audio
ID : 192 (0xC0)
Format : MPEG Audio
Format version : Version 1
Format profile : Layer 2
Duration : 5mn 16s
Bit rate mode : Constant
Bit rate : 128 Kbps
Channel(s) : 2 channels
Sampling rate : 48.0 KHz
Stream size : 4.82 MiB (4%)[/code]

Related torrents

Torrent NameAddedSizeSeedLeechHealth
Verified torrent
1 Year+ - in Music76.74 MB20
1 Year+ - in Music8.35 MB2363
1 Year+ - in Movies91.94 MB00
1 Year+ - in Movies155.03 MB00
1 Year+ - in Movies68.2 MB2125

Comments (0 Comments)




Please login or create a FREE account to post comments

Latest Searches

| jessica and puma | fargo mux | the foxxx 6 | Johnny Cash Ultimate Gospel | brain wolfe | churchill a history of | 21 22 23 | billy | B ram pdf | The Graham Norton Show s |