Quick Browse
Movies
TV shows
Music
Games
Applications
Anime
Other
Facebook
Advertising

Friends
Torrent Download
Movie4u
1337x.to
Torrent Downloads




Nikita.S01E22.HDTV.XviD-Sub.Ita-[IDN-CREW]


    Seeders : 1      Leechers : 2
Hash :574DBDDC62F456E8ACF0C9B559C03B9457AA39C1
Added :1 Year+ by manny02Verified torrent uploader in TV shows
Size :350.5 MB
Stream :WATCH ONLINE @ Movie4u


Nikita.S01E22.HDTV.XviD-Sub.Ita-[IDN-CREW]
Free and Fast Download with Usenet 300GB+ free







Trackers List

Tracker NameLast CheckStatusSeedersLeechers




Torrent File Content (2 files)


Nikita.S01E22.HDTV.XviD-Sub.Ita-[IDN-CREW]
     Nikita.S01E22.HDTV.XviD-Sub.Ita-[IDN-CREW].avi -
350.46 MB

     Nikita.S01E22.HDTV.XviD-Sub.Ita-[IDN-CREW].srt -
42.24 KB



Description



http://img192.imageshack.us/img192/1629/nikita2.jpg


http://img514.imageshack.us/img514/1502/inforelease.png


[color=red]
Titolo: Nikita
Anno: 2010
Nazionalità: USA
Genere: Drammatico, azione, thriller
Stagione: 1
Episodi: 22
Durata Episodio: 43 min ca (episodio)
Ideatore: Craig Silverstein
Produzione: Craig Silverstein - McG - Peter Johnson
[/color]


http://img152.imageshack.us/img152/7065/300pxnikita2010intertit.png


http://img153.imageshack.us/img153/7608/tramao.png


[color=black] Nikita è un'ex agente operativa di un'organizzazione segreta chiamata Division, che l'ha salvata dalla vita sulla strada per trasformarla in una spia e killer professionista. Nikita, sfuggita dal controllo della Divisione, lavora ora per conto suo con lo scopo di distruggerla. All'interno dell'organizzazione ha segretamente infiltrato una complice, Alex, una ragazza col passato simile al suo che come lei prova sentimenti di vendetta nei confronti della Divisione.
[/color]

Episodi

[color=red]1. Pilot
2. 2.0
3. Kill Jill
4. Rough Trade
5. The Guardian
6. Resistance
7. The Recruit
8. Phoenix
9. One Way
10. Dark Matter
11. All the Way
12. Free
13. Coup de Grace
14. The Next Seduction
15. Alexandra
16. Echoes
17. Convenants
18. Into the Dark
19. Girl's Best Friend
20. Glass House
21. Betrayals
22. Pandora
[/color]

http://img190.imageshack.us/img190/7663/recension.png


[color=red] Nikita è una serie televisiva statunitense, basata sul film francese del 1990 Nikita, sul suo remake del 1993 Nome in codice: Nina e sulla serie televisiva canadese Nikita del 1997. Va in onda sul network The CW dal 9 settembre 2010.
La Nikita di CW mischia le carte adottando i personaggi introdotti dal primo spin-off ma ripartendo dal finale del film: qui, la bellissima Maggie Q è un'ex spia votata alla distruzione dell'organizzazione segreta che l'ha trasformata in assassina e le ha ucciso il compagno, e a cui è sfuggita da ormai tre anni.
I primi episodi di Nikita sono un mix ben miscelato di azione e introspezione, che riesce efficacemente e senza forzature a spiegare le premesse a chi non conosce gli eventi e a portare avanti la storia con ritmo e semplicità. Tra un inseguimento e una sparatoria, la narrazione trova il tempo per delineare protagonista e comprimari.
[/color]

http://img529.imageshack.us/img529/7286/datifile.png


[color=black]General
Complete name : Nikita.S01E22.HDTV.XviD-Sub.Ita-[IDN-CREW].avi
Format : AVI
Format/Info : Audio Video Interleave
File size : 350 MiB
Duration : 41mn 57s
Overall bit rate : 1 168 Kbps
Writing application : transcode-1.0.4

Video
Format : MPEG-4 Visual
Format profile : Streaming [email protected]
Format settings, BVOP : Yes
Format settings, QPel : No
Format settings, GMC : No warppoints
Format settings, Matrix : Default
Codec ID : XVID
Codec ID/Hint : XviD
Duration : 41mn 57s
Bit rate : 997 Kbps
Width : 624 pixels
Height : 352 pixels
Display aspect ratio : 16/9
Frame rate : 23.976 fps
Resolution : 24 bits
Colorimetry : 4:2:0
Scan type : Progressive
Bits/(Pixel*Frame) : 0.189
Stream size : 299 MiB (85%)
Writing library : XviD 50

Audio
Format : MPEG Audio
Format version : Version 1
Format profile : Layer 3
Codec ID : 55
Codec ID/Hint : MP3
Duration : 41mn 57s
Bit rate mode : Variable
Bit rate : 128 Kbps
Channel(s) : 2 channels
Sampling rate : 48.0 KHz
Resolution : 16 bits
Stream size : 47.4 MiB (14%)
Alignment : Aligned on interleaves
Interleave, duration : 24 ms (0.58 video frame)

[/color]


http://img20.imageshack.us/img20/4974/screenshotsph.png


[color=blue]Immagini catturate con VLC Media Player[/color]

http://img258.imageshack.us/img258/6362/vlcsnap00001e.jpg

http://img710.imageshack.us/img710/1690/vlcsnap00002jk.jpg

http://img89.imageshack.us/img89/2151/vlcsnap00005g.jpg

http://img52.imageshack.us/img52/4545/vlcsnap00004x.jpg

http://img208.imageshack.us/img208/8558/vlcsnap00003r.jpg


[color=red]Si ringrazia Subsfactory per i sottotitoli[/color]

http://img191.imageshack.us/img191/8011/nuuuuuuuuuuuw.png


Related torrents

Torrent NameAddedSizeSeedLeechHealth
1 Year+ - in TV shows425.68 MB02
1 Year+ - in TV shows340 MB00
1 Year+ - in TV shows340 MB10
1 Year+ - in TV shows338.99 MB10
1 Year+ - in TV shows358.09 MB10

Comments (0 Comments)




Please login or create a FREE account to post comments

Latest Searches

| 100 best | asian cum inside | i now pronounce you chuck larry | Peaky Blinders S02E01 PROPER 720p HDTV x264 TLA mkv | Underworld Blood Wars 2016 CAMRip | truth hurts bs | Smash s02e16 HDTV | Forza Horizon 3 PC | Fishing resort wii pal | dizzy wright audio |