Quick Browse
Movies
TV shows
Music
Games
Applications
Anime
Other
Facebook
Advertising

Friends
Torrent Download
Movie4u
1337x.to
Torrent Downloads




Ninja.Assassin.2009.Cam.Xvid.TA.torrent_[trackeraccess_org]


    Seeders : 4      Leechers : 5
Hash :73B0912FCE0F5AAA3E9CD5536D2FD508C4B911BC
Added :1 Year+ in Movies
Size :694.39 MB
Stream :WATCH ONLINE @ Movie4u


Ninja.Assassin.2009.Cam.Xvid.TA.torrent_[trackeraccess_org]
Free and Fast Download with Usenet 300GB+ free







Trackers List

Tracker NameLast CheckStatusSeedersLeechers




Torrent File Content (52 files)


Ninja.Assassin.2009.Cam.Xvid.TA
     Ninja.Assassin.2009.Cam.Xvid.TA.part27.rar -
13.97 MB

     Ninja.Assassin.2009.Cam.Xvid.TA.part03.rar -
13.97 MB

     Ninja.Assassin.2009.Cam.Xvid.TA.part04.rar -
13.97 MB

     Ninja.Assassin.2009.Cam.Xvid.TA.part02.rar -
13.97 MB

     Ninja.Assassin.2009.Cam.Xvid.TA.part05.rar -
13.97 MB

     Ninja.Assassin.2009.Cam.Xvid.TA.part06.rar -
13.97 MB

     Ninja.Assassin.2009.Cam.Xvid.TA.part07.rar -
13.97 MB

     Ninja.Assassin.2009.Cam.Xvid.TA.part08.rar -
13.97 MB

     Ninja.Assassin.2009.Cam.Xvid.TA.part09.rar -
13.97 MB

     Ninja.Assassin.2009.Cam.Xvid.TA.part10.rar -
13.97 MB

     Ninja.Assassin.2009.Cam.Xvid.TA.part11.rar -
13.97 MB

     Ninja.Assassin.2009.Cam.Xvid.TA.part12.rar -
13.97 MB

     Ninja.Assassin.2009.Cam.Xvid.TA.part13.rar -
13.97 MB

     Ninja.Assassin.2009.Cam.Xvid.TA.part14.rar -
13.97 MB

     Ninja.Assassin.2009.Cam.Xvid.TA.part15.rar -
13.97 MB

     Ninja.Assassin.2009.Cam.Xvid.TA.part16.rar -
13.97 MB

     Ninja.Assassin.2009.Cam.Xvid.TA.part17.rar -
13.97 MB

     Ninja.Assassin.2009.Cam.Xvid.TA.part18.rar -
13.97 MB

     Ninja.Assassin.2009.Cam.Xvid.TA.part19.rar -
13.97 MB

     Ninja.Assassin.2009.Cam.Xvid.TA.part20.rar -
13.97 MB

     Ninja.Assassin.2009.Cam.Xvid.TA.part21.rar -
13.97 MB

     Ninja.Assassin.2009.Cam.Xvid.TA.part22.rar -
13.97 MB

     Ninja.Assassin.2009.Cam.Xvid.TA.part23.rar -
13.97 MB

     Ninja.Assassin.2009.Cam.Xvid.TA.part24.rar -
13.97 MB

     Ninja.Assassin.2009.Cam.Xvid.TA.part25.rar -
13.97 MB

     Ninja.Assassin.2009.Cam.Xvid.TA.part26.rar -
13.97 MB

     Ninja.Assassin.2009.Cam.Xvid.TA.part01.rar -
13.97 MB

     Ninja.Assassin.2009.Cam.Xvid.TA.part28.rar -
13.97 MB

     Ninja.Assassin.2009.Cam.Xvid.TA.part29.rar -
13.97 MB

     Ninja.Assassin.2009.Cam.Xvid.TA.part30.rar -
13.97 MB

     Ninja.Assassin.2009.Cam.Xvid.TA.part31.rar -
13.97 MB

     Ninja.Assassin.2009.Cam.Xvid.TA.part32.rar -
13.97 MB

     Ninja.Assassin.2009.Cam.Xvid.TA.part33.rar -
13.97 MB

     Ninja.Assassin.2009.Cam.Xvid.TA.part34.rar -
13.97 MB

     Ninja.Assassin.2009.Cam.Xvid.TA.part35.rar -
13.97 MB

     Ninja.Assassin.2009.Cam.Xvid.TA.part36.rar -
13.97 MB

     Ninja.Assassin.2009.Cam.Xvid.TA.part37.rar -
13.97 MB

     Ninja.Assassin.2009.Cam.Xvid.TA.part38.rar -
13.97 MB

     Ninja.Assassin.2009.Cam.Xvid.TA.part39.rar -
13.97 MB

     Ninja.Assassin.2009.Cam.Xvid.TA.part40.rar -
13.97 MB

     Ninja.Assassin.2009.Cam.Xvid.TA.part41.rar -
13.97 MB

     Ninja.Assassin.2009.Cam.Xvid.TA.part42.rar -
13.97 MB

     Ninja.Assassin.2009.Cam.Xvid.TA.part43.rar -
13.97 MB

     Ninja.Assassin.2009.Cam.Xvid.TA.part44.rar -
13.97 MB

     Ninja.Assassin.2009.Cam.Xvid.TA.part45.rar -
13.97 MB

     Ninja.Assassin.2009.Cam.Xvid.TA.part46.rar -
13.97 MB

     Ninja.Assassin.2009.Cam.Xvid.TA.part47.rar -
13.97 MB

     Ninja.Assassin.2009.Cam.Xvid.TA.part48.rar -
13.97 MB

     Ninja.Assassin.2009.Cam.Xvid.TA.part49.rar -
13.97 MB

     Ninja.Assassin.2009.Cam.Xvid.TA.part50.rar -
7.03 MB



Description



Ninja.Assassin.2009.Cam.Xvid.TA

http://i50.tinypic.com/ogtia.jpg


http://www.imdb.com/title/tt1186367/





Source : Not yours
General
Complete name : Ninja.Assassin.2009.Cam.Xvid.TA.avi
Format : AVI
Format/Info : Audio Video Interleave
File size : 701 MiB
Duration : 1h 28mn
Overall bit rate : 1 110 Kbps

Video
ID : 0
Format : MPEG-4 Visual
Format profile : [email protected]
Format settings, BVOP : Yes
Format settings, QPel : No
Format settings, GMC : No warppoints
Format settings, Matrix : Custom
Codec ID : XVID
Codec ID/Hint : XviD
Duration : 1h 28mn
Bit rate : 987 Kbps
Width : 608 pixels
Height : 208 pixels
Display aspect ratio : 2.35:1
Frame rate : 29.970 fps
Resolution : 24 bits
Colorimetry : 4:2:0
Scan type : Progressive
Bits/(Pixel*Frame) : 0.260
Stream size : 623 MiB (89%)
Writing library : XviD 1.2.1 (UTC 2008-12-04)

Audio
ID : 1
Format : MPEG Audio
Format version : Version 1
Format profile : Layer 3
Codec ID : 55
Codec ID/Hint : MP3
Duration : 1h 28mn
Bit rate mode : Variable
Bit rate : 109 Kbps
Nominal bit rate : 128 Kbps
Channel(s) : 2 channels
Sampling rate : 48.0 KHz
Resolution : 16 bits
Stream size : 68.8 MiB (10%)
Alignment : Aligned on interleaves
Interleave, duration : 24 ms (0.72 video frame)
Interleave, preload duration : 532 ms
Writing library : LAME3.98r
Encoding settings : -m j -V 4 -q 2 -lowpass 17 --abr 128

NOTES: Missing the 1st 9 Min and the audio goes out a couple times.
Take it or leave it

Screens:

http://i46.tinypic.com/2ilj5tu.jpg

http://i49.tinypic.com/303d3mc.jpg

http://i45.tinypic.com/2qjejd5.jpg

http://i48.tinypic.com/1evpte.jpg


Related torrents

Torrent NameAddedSizeSeedLeechHealth
1 Year+ - in Movies784.1 MB2227
1 Year+ - in Movies832.83 MB00
1 Year+ - in Movies1.65 GB01
1 Year+ - in Movies697.32 MB173
1 Year+ - in Music174.55 MB5849

Comments (0 Comments)




Please login or create a FREE account to post comments

Latest Searches

| ludacris radio | spectral subs | BigTitsAtSchool Blanche Bradburry | S P M ooh wee | Valu valu | mr safety | ivy rose publicpickups | review forrest WEBRIP AAC2 0 H 264 | dc s02e07 | nathaly pissing |