Quick Browse
Movies
TV shows
Music
Games
Applications
Anime
Other
Facebook
Advertising

Friends
Torrent Download
Movie4u
1337x.to
Torrent Downloads




Verified torrent Not Forgotten [2009] [DVD] [AC3] [Hannspree]


    Seeders : 1      Leechers : 16
Hash :8BA412223EB9553232E8F7C5C7A224BA703F0645
Added :1 Year+ by HannspreeVerified torrent uploader in Movies
Size :1.39 GB
Stream :WATCH ONLINE @ Movie4u


Not Forgotten [2009] [DVD] [AC3] [Hannspree]
Free and Fast Download with Usenet 300GB+ free







Trackers List

Tracker NameLast CheckStatusSeedersLeechers




Torrent File Content (11 files)


Not Forgotten
    Not Forgotten - [DVD]
          Not Forgotten - Covers/Not Forgotten - Cover.jpg -
134.19 KB

          Not Forgotten - Covers/Not Forgotten - Disc.jpg -
27.02 KB

          Not Forgotten - DVD/VIDEO_TS/VIDEO_TS.BUP -
12 KB

          Not Forgotten - DVD/VIDEO_TS/VIDEO_TS.IFO -
12 KB

          Not Forgotten - DVD/VIDEO_TS/VIDEO_TS.VOB -
58 KB

          Not Forgotten - DVD/VIDEO_TS/VTS_01_0.BUP -
64 KB

          Not Forgotten - DVD/VIDEO_TS/VTS_01_0.IFO -
64 KB

          Not Forgotten - DVD/VIDEO_TS/VTS_01_0.VOB -
60 KB

          Not Forgotten - DVD/VIDEO_TS/VTS_01_1.VOB -
1023.97 MB

          Not Forgotten - DVD/VIDEO_TS/VTS_01_2.VOB -
400.25 MB

     Not Forgotten - [DVD].NFO -
6.59 KB



Description



=========================================================================================================================
[ Another free and high quality, ready to burn DVD - I will be adding new torrents on a daily basis - Remember to seed ]
=========================================================================================================================
MOVIE TITLE: Not Forgotten
LANGUAGE: English
MOVIE SUBS: No - (subtitles if/when required)
BURN TESTED: Yes
FORMAT: Pal
GENRE: Thriller
RUNTIME: 93 Minutes
YEAR: 2009
IMDB LINK: http://www.imdb.com/title/tt1127221/
=========================================================================================================================
GENERAL MOVIE DESC:

In Del Rio, in the border of Texas and Mexico, the female teen-soccer coach Jack Bishop is very popular and he loves his eleven year-old daughter Toby and her stepmother Amaya. When Toby is kidnapped, Amaya's cousin,

the rookie Sheriff Casper Navarro, is in charge of the investigation, but sooner the FBI arrives in town to lead the hunt. However, Navarro and Jack travel to Mexico following a lead and the hidden past of Jack returns to

haunt him.
=========================================================================================================================
GENERAL MOVIE SPECS:

Complete name : Not Forgotten
Format : MPEG-PS
File size : 1.39 GB
Duration : 93 Minutes
Overall bit rate : 2 219 Kbps

VIDEO:
ID : 224 (0xE0)
Format : MPEG Video
Format version : Version 2
Format profile : [email protected]
Format settings, BVOP : Yes
Format settings, Matrix : Default
Duration : 93 Minutes
Bit rate mode : Variable
Bit rate : 1 983 Kbps
Nominal bit rate : 9 608 Kbps
Width : 704 pixels
Height : 576 pixels
Display aspect ratio : 16:9
Frame rate : 25.000 fps
Standard : PAL
Color space : YUV
Chroma subsampling : 4:2:0
Bit depth : 8 bits
Scan type : Progressive
Bits/(Pixel*Frame) : 0.196
Stream size : 915 MiB (89%)

AUDIO:
ID : 128 (0x80)
Format : AC-3
Format/Info : Audio Coding 3
Mode extension : CM (complete main)
Duration : 93 Minutes
Bit rate mode : Constant
Bit rate : 192 Kbps
Channel(s) : 2 channels
Channel positions : Front: L R
Sampling rate : 48.0 KHz
Stream size : 88.6 MiB (9%)
=========================================================================================================================

Related torrents

Torrent NameAddedSizeSeedLeechHealth
Verified torrent
1 Year+ - in Movies1.89 GB111
Verified torrent
1 Year+ - in Movies1.36 GB113
Verified torrent
1 Year+ - in Movies1.67 GB00
Verified torrent
1 Year+ - in Movies1.09 GB20
Verified torrent
1 Year+ - in Movies1.77 GB10

Comments (0 Comments)




Please login or create a FREE account to post comments

Latest Searches

| haikyuu opening | Jillian Janson Anya Olsen Hot Vacation With My Best Friend | cuckoldsessions nikki benz 1080p | Electric for Life 2016 Mixed By Gareth Emery | havana habana | srigga project runway | computer active august | divergent 1080p NVEE | Susana Melo High Heels | SERIAL PANDA 2016 |