Quick Browse
Movies
TV shows
Music
Games
Applications
Anime
Other
Facebook
Advertising

Friends
Torrent Download
Movie4u
1337x.to
Torrent Downloads




Old Dogs - 2009 - Cam - Xvid - TA


    Seeders : 0      Leechers : 0
Hash :EC1CD5B2790B593120CD118DE992EA66EAAE6FB9
Added :1 Year+ in Movies
Size :507.93 MB
Stream :WATCH ONLINE @ Movie4u


Old Dogs - 2009 - Cam - Xvid - TA
Free and Fast Download with Usenet 300GB+ free







Trackers List

Tracker NameLast CheckStatusSeedersLeechers




Torrent File Content (3 files)


Old.Dogs.2009.Cam.Xvid.TA
     Old.Dogs.2009.Cam.Xvid.TA.Sample.avi -
5.2 MB

     Old.Dogs.2009.Cam.Xvid.TA.avi -
502.44 MB

     poster.png -
289.25 KB



Description



Language: English
Category: Cam
Size: 496.00 MB in 3 file
genre: Comedy | Family
Runtime: USA:88 min


Plot Outline: Two friends and business partners find their lives turned upside down when strange circumstances lead to them being placed in the care of 7-year-old twins.

IMDB Link: http://www.imdb.com/title/tt0976238/


General
Complete name : Old.Dogs.Cam.Xvid.TA.avi
Format : AVI
Format/Info : Audio Video Interleave
File size : 502 MiB
Duration : 1h 14mn
Overall bit rate : 941 Kbps
Writing application : Lavf50.6.0
Writing library : VirtualDub build 30091/release

Video
ID : 0
Format : MPEG-4 Visual
Format profile : [email protected]
Format settings, BVOP : Yes
Format settings, QPel : No
Format settings, GMC : No warppoints
Format settings, Matrix : Default (H.263)
Muxing mode : Packed bitstream
Codec ID : XVID
Codec ID/Hint : XviD
Duration : 1h 14mn
Bit rate : 801 Kbps
Width : 640 pixels
Height : 408 pixels
Display aspect ratio : 1.569
Frame rate : 25.000 fps
Resolution : 24 bits
Colorimetry : 4:2:0
Scan type : Progressive
Bits/(Pixel*Frame) : 0.123
Stream size : 428 MiB (85%)
Writing library : XviD 1.2.1 (UTC 2008-12-04)

Audio
ID : 1
Format : MPEG Audio
Format version : Version 1
Format profile : Layer 3
Codec ID : 55
Codec ID/Hint : MP3
Duration : 1h 14mn
Bit rate mode : Constant
Bit rate : 128 Kbps
Channel(s) : 2 channels
Sampling rate : 44.1 KHz
Resolution : 16 bits
Stream size : 68.3 MiB (14%)
Alignment : Aligned on interleaves
Interleave, duration : 26 ms (0.65 video frame)
Interleave, preload duration : 522 ms

Related torrents

Torrent NameAddedSizeSeedLeechHealth
1 Year+ - in Movies507.65 MB305339
1 Year+ - in Movies4.03 GB00
1 Year+ - in Movies910.02 MB471106
2 months ago - in Movies1.71 GB00
1 Year+ - in Movies722.23 MB6821

Comments (0 Comments)




Please login or create a FREE account to post comments

Latest Searches

| keith laumer epub | 3 river | big sloppy | LLLL | Bob marley dont worry be happy | General | SRXV 433 GothLoli Collection Tina Yuzuki | Daawat e Ishq 2014 Hindi 1CD DVDRip x264 E subs Team DDHRG | wwe tlc 2016 ppv hdtv x264 ebi tjet wwe tlc 2016 ppv hdtv x264 ebi tjet | top 40 2016 radio |