Quick Browse
Movies
TV shows
Music
Games
Applications
Anime
Other
Facebook
Advertising

Friends
Torrent Download
Movie4u
1337x.to
Torrent Downloads




Verified torrent One For The Money 2012 720p BDRip XviD AC3-26k


    Seeders : 66      Leechers : 33
Hash :47473A0DF79D688B33BB5AF1177C048BE05E523A
Added :1 Year+ by memory100Verified torrent uploader in Movies
Size :2.33 GB
Stream :WATCH ONLINE @ Movie4u


One For The Money 2012 720p BDRip XviD AC3-26k
Free and Fast Download with Usenet 300GB+ free







Trackers List

Tracker NameLast CheckStatusSeedersLeechers




Torrent File Content (13 files)


One For The Money 2012 720p BDRip XviD AC3-26k
     1.png -
1.22 MB

     2.png -
677.97 KB

     26k nfo.nfo -
3.55 KB

     3.png -
500.68 KB

     4.png -
1.16 MB

     att-networks.com.txt -
39 bytes

     HDSceneRG.txt -
115 bytes

     One For The Money 2012 720p BDRip XviD AC3-26k.avi -
2.33 GB

     One For The Money 2012 720p BDRip XviD AC3-26k.jpg -
150.24 KB

     sceneunderground.org.txt -
77 bytes

     Torrent downloaded from Demonoid.me.txt -
46 bytes

     Torrent downloaded from rarbg.com.txt.txt -
0 bytes

     YouTube Latest Releases And Archive.txt -
80 bytes



Description



http://img846.imageshack.us/img846/6697/onemoney.jpg


[code]
One For The Money 2012 720p BDRip XviD AC3-26k-

http://www.imdb.com/title/tt1598828/

Unemployed and newly-divorced Stephanie Plum lands a job at her cousin's bail-bond business,
where her first assignment puts her on the trail of a wanted local cop from her romantic past.

Sources - ONE_FOR_THE_MONEY_BD...THANKS :P

Format : AVI
Format/Info : Audio Video Interleave
Format profile : OpenDML
File size : 2.33 GiB
Duration : 1h 31mn
Overall bit rate : 3 652 Kbps
Writing library : VirtualDub build 32839/release

Video
ID : 0
Format : MPEG-4 Visual
Format profile : Advanced [email protected]
Format settings, BVOP : 2
Format settings, QPel : No
Format settings, GMC : No warppoints
Format settings, Matrix : Default (H.263)
Codec ID : XVID
Codec ID/Hint : XviD
Duration : 1h 31mn
Bit rate : 3 000 Kbps
Width : 1 280 pixels
Height : 544 pixels
Display aspect ratio : 2.35:1
Frame rate : 23.976 fps
Color space : YUV
Chroma subsampling : 4:2:0
Bit depth : 8 bits
Scan type : Progressive
Compression mode : Lossy
Bits/(Pixel*Frame) : 0.180
Stream size : 1.91 GiB (82%)
Writing library : XviD 1.2.1 (UTC 2008-12-04)

Audio
ID : 1
Format : AC-3
Format/Info : Audio Coding 3
Mode extension : CM (complete main)
Codec ID : 2000
Duration : 1h 31mn
Bit rate mode : Constant
Bit rate : 640 Kbps
Channel(s) : 6 channels
Channel positions : Front: L C R, Side: L R, LFE
Sampling rate : 48.0 KHz
Bit depth : 16 bits
Compression mode : Lossy
Stream size : 418 MiB (18%)
Alignment : Split accross interleaves
Interleave, duration : 42 ms (1.00 video frame)
Interleave, preload duration : 500 ms



Notes -
Did my thing... turned out real nice...enjoy

[/code]
Screens:
http://i.imgur.com/02bPP.jpg

http://i.imgur.com/cgZZh.png

http://img196.imageshack.us/img196/4048/20586626.png

http://img823.imageshack.us/img823/4581/83910106.png


Greetz:
Xtreme

Encode|FYA|ILLUMANTI|CM8|RX|VISI​ON|HDSCENE|xTriLL|DTRG|CRYS|REMIX​HD|BIDA|RX|REFILL|INSPiRAL|SIC|
|HO​PE|Anonymous|GooN
To all the people who have helped me you know who you are

Anything to offer email us @: [email protected]

Alternative screens:
http://www.hotimg.com/image/BvbqsYE
http://dippic.com/i2ri4ffjx1bq
http://imgdepot.org/show/20120229/2/824416_3.png
http://www.imageporter.com/8hr6ummo500x/4.png

http://img851.imageshack.us/img851/5503/26ks.jpg

Thank you smallz for banner!

Related torrents

Torrent NameAddedSizeSeedLeechHealth
Verified torrent
1 Year+ - in Movies2.44 GB02
Verified torrent
1 Year+ - in Movies1.57 GB20
1 Year+ - in Movies1.37 GB061
1 Bad
1 Year+ - in Movies1.49 GB200187
1 Year+ - in Movies1.37 GB1139

Comments (0 Comments)




Please login or create a FREE account to post comments

Latest Searches

| Suicide Squad Extended 2016 720p H264 Italian English Ac3 5 1 | discographya coolio 10 albums 7 singles 17cd 19942009 mp3 160 320 kbps | bass boosted | va clubland 100 | acoustic christmas flac | windows 7 red edition iso | maniac cop extended | The Siege 1998 x264 1080p | fly shit onlyfuture | Romantic fucks |