Quick Browse
Movies
TV shows
Music
Games
Applications
Anime
Other
Facebook
Advertising

Friends
Torrent Download
Movie4u
1337x.to
Torrent Downloads




Verified torrent One For The Money 2012 R5 DVDRip XviD AC3-26k


    Seeders : 2      Leechers : 0
Hash :F5441CEA5704100979933D35619045718990F737
Added :1 Year+ by memory100Verified torrent uploader in Movies
Size :1.57 GB
Stream :WATCH ONLINE @ Movie4u


One For The Money 2012 R5 DVDRip XviD AC3-26k
Free and Fast Download with Usenet 300GB+ free







Trackers List

Tracker NameLast CheckStatusSeedersLeechers




Torrent File Content (13 files)


One For The Money 2012 R5 DVDRip XviD AC3-26k
     1.png -
374.74 KB

     2.png -
314.16 KB

     26k nfo.nfo -
3.51 KB

     3.png -
368.65 KB

     4.png -
353.49 KB

     att-networks.com.txt -
39 bytes

     HDSceneRG.txt -
115 bytes

     One For The Money 2012 R5 DVDRip XviD AC3-26k.avi -
1.57 GB

     One For The Money 2012 R5 DVDRip XviD AC3-26k.jpg -
148.26 KB

     sceneunderground.org.txt -
77 bytes

     Torrent downloaded from Demonoid.me.txt -
46 bytes

     Torrent downloaded from rarbg.com.txt.txt -
0 bytes

     YouTube Latest Releases And Archive.txt -
80 bytes



Description



http://img94.imageshack.us/img94/7435/onefor.jpg


[code]
One For The Money 2012 R5 DVDRip XviD AC3-26k

http://www.imdb.com/title/tt1598828/

Plot:
Unemployed and newly-divorced Stephanie Plum lands a job at her cousin's
bail-bond business, where her first assignment puts her on the trail of a
wanted local cop from her romantic past.

Sources - Russian DVD9..Thanks :P

Format : AVI
Format/Info : Audio Video Interleave
File size : 1.57 GiB
Duration : 1h 27mn
Overall bit rate : 2 565 Kbps

Video
ID : 0
Format : MPEG-4 Visual
Format profile : Advanced [email protected]
Format settings, BVOP : 2
Format settings, QPel : No
Format settings, GMC : No warppoints
Format settings, Matrix : Default (H.263)
Muxing mode : Packed bitstream
Codec ID : XVID
Codec ID/Hint : XviD
Duration : 1h 27mn
Bit rate : 2 103 Kbps
Width : 720 pixels
Height : 320 pixels
Display aspect ratio : 2.25:1
Frame rate : 25.000 fps
Color space : YUV
Chroma subsampling : 4:2:0
Bit depth : 8 bits
Scan type : Progressive
Compression mode : Lossy
Bits/(Pixel*Frame) : 0.365
Stream size : 1.29 GiB (82%)
Writing library : XviD 1.2.1 (UTC 2008-12-04)

Audio #1
ID : 1
Format : AC-3
Format/Info : Audio Coding 3
Mode extension : CM (complete main)
Codec ID : 2000
Duration : 1h 27mn
Bit rate mode : Constant
Bit rate : 448 Kbps
Channel(s) : 6 channels
Channel positions : Front: L C R, Side: L R, LFE
Sampling rate : 48.0 KHz
Bit depth : 16 bits
Compression mode : Lossy
Stream size : 281 MiB (17%)
Alignment : Aligned on interleaves
Interleave, duration : 64 ms (1.60 video frames)
Interleave, preload duration : 192 ms

Notes -
It came with 5.1 AC3 Studio Audio on it...Did my thing.. turned out real nice...

[/code]
Screens:
http://i.imgur.com/LjxGX.png

http://img43.imageshack.us/img43/7302/33222371.png

http://img18.imageshack.us/img18/8641/30666831.pngbr
/[IMG]http://img849.imageshack.us/img849/9972/84389566.png

http://img803.imageshack.us/img803/3167/oneforthemoney2012r5dvd.jpg


Greetz:
Xtreme Encode|FYA|ILLUMANTI|CM8|RX|VISI​ON|HDSCENE|xTriLL|DTRG|CRYS|REMIX​HD|BIDA|RX|REFILL|INSPiRAL|SIC|
|HO​PE|Anonymous|GooN
To all the people who have helped me you know who you are

Anything to offer email us @: [email protected]


http://img851.imageshack.us/img851/5503/26ks.jpg

Thank you smallz for banner!

Related torrents

Torrent NameAddedSizeSeedLeechHealth
Verified torrent
1 Year+ - in Movies2.33 GB6633
Verified torrent
1 Year+ - in Movies2.44 GB02
1 Year+ - in Movies597.3 MB00
1 Year+ - in Movies704.61 MB3329
1 Year+ - in Movies1.37 GB1139

Comments (0 Comments)




Please login or create a FREE account to post comments

Latest Searches

| 12 06 2016 | Kristen Scott 06 2016 | l lesbians fuck | nikki full service | gabrielle nubiles | DEEPER ALBUM | chopped canada s04e02 | Wunf Emma Hix | ICare Data Recovery Pro 7 Crack | AACN ESSENTIALS OF PROGRESSIVE CARE NURSING |