Quick Browse
Movies
TV shows
Music
Games
Applications
Anime
Other
Facebook
Advertising

Friends
Torrent Download
Movie4u
1337x.to
Torrent Downloads




Verified torrent One Missed Call [DVD] [Eng] [AC3] [Hannspree]]


    Seeders : 1      Leechers : 29
Hash :137A7A4604558C2F91949AFBD82936B14F0648BC
Added :1 Year+ by HannspreeVerified torrent uploader in Movies
Size :1.36 GB
Stream :WATCH ONLINE @ Movie4u


One Missed Call [DVD] [Eng] [AC3] [Hannspree]]
Free and Fast Download with Usenet 300GB+ free







Trackers List

Tracker NameLast CheckStatusSeedersLeechers




Torrent File Content (15 files)


One Missed Call
    One Missed Call [Covers]
          One Missed Call [DVD Cover].jpg -
74.77 KB

          One Missed Call [DVD Disc].jpg -
42.78 KB

          One Missed Call [Screens].jpg -
155.47 KB

    One Missed Call [DVD]
          VIDEO_TS/VIDEO_TS.BUP -
12 KB

          VIDEO_TS/VIDEO_TS.IFO -
12 KB

          VIDEO_TS/VIDEO_TS.VOB -
60 KB

          VIDEO_TS/VTS_01_0.BUP -
64 KB

          VIDEO_TS/VTS_01_0.IFO -
64 KB

          VIDEO_TS/VTS_01_0.VOB -
60 KB

          VIDEO_TS/VTS_01_1.VOB -
1023.97 MB

          VIDEO_TS/VTS_01_2.VOB -
370.28 MB

     One Missed Call.NFO -
4.4 KB

     Torrent downloaded from Ahashare.com.txt -
47 bytes

     Torrent downloaded from Demonoid.com.txt -
47 bytes

     Torrent downloaded from Genesis-sp.org.txt -
49 bytes



Description



===============================================================================================
[ Another free and high quality, ready to burn DVD - I will be adding new torrents on a daily basis - Remember to seed ]
===============================================================================================
MOVIE TITLE: One Missed Call
LANGUAGE: English
MOVIE SUBS: No - (subtitles if/when required)
BURN TESTED: Yes
FORMAT: Pal
GENRE: Horror | Mystery | Thriller
RUNTIME: 87 Minutes
YEAR: 2008
IMDB LINK: http://www.imdb.com/title/tt0479968/
===============================================================================================
GENERAL MOVIE DESC:

After the death of their friend Shelley, Leann Cole receives a voice mail from the future of the date and time when she would die. On the scheduled day, Leann sees weird things and in the precise informed hour, Leann is attacked by a supernatural force on a footbridge over a train station while talking to her friend Beth Raymond. Beth meets Leann's boyfriend Brian, who also received a call, and witnesses his death on the street. When her roommate Taylor Anthony receives a call, Beth befriends Det. Jack Andrews, who tells her that his sister was the first victim of the phone call. They decide to investigate the connections of Jack's sister and find the name of Marie Layton, who apparently abused of her daughters. Jack and Beth run against time trying to save Beth from her fate
===============================================================================================
GENERAL MOVIE SPECS:

GENERAL:
Complete name : One Missed Call [DVD]
Format : MPEG-PS
File size : 1.36 GB (1,462,537,775 bytes)
Duration : 87 Minutes
Overall bit rate : 2 227 Kbps

VIDEO:
ID : 224 (0xE0)
Format : MPEG Video
Format version : Version 2
Format profile : [email protected]
Format settings, BVOP : Yes
Format settings, Matrix : Default
Duration : 87 Minutes
Bit rate mode : Variable
Bit rate : 1 990 Kbps
Nominal bit rate : 9 608 Kbps
Width : 720 pixels
Height : 576 pixels
Display aspect ratio : 16:9
Frame rate : 24.000 fps
Standard : PAL
Color space : YUV
Chroma subsampling : 4:2:0
Bit depth : 8 bits
Scan type : Progressive
Scan order : 2:2:2:2:2:2:2:2:2:2:2:3 Pulldown
Bits/(Pixel*Frame) : 0.200
Stream size : 915 MiB (89%)

AUDIO:
ID : 128 (0x80)
Format : AC-3
Format/Info : Audio Coding 3
Mode extension : CM (complete main)
Duration : 87 Minutes
Bit rate mode : Constant
Bit rate : 192 Kbps
Channel(s) : 2 channels
Channel positions : Front: L R
Sampling rate : 48.0 KHz
Stream size : 88.3 MiB (9%)
===============================================================================================
TRACKERS:
http://inferno.demonoid.com:3399/announce
http://tracker.openbittorrent.com/announce
http://tracker.publicbt.com:80/announce
http://tracker.torrentbox.com:2710/announce
http://tracker.publicbt.com/announce
http://tracker.bittorrent.am:80/announce
http://publicbt.ath.cx/announce
http://10.rarbg.com/announce
http://denis.stalker.h3q.com/announce
http://denis.stalker.h3q.com:6969/announce
http://www.genesis-sp.org:2710/announce
http://genesis.1337x.org:1337/announce
http://nemesis.1337x.org/announce
http://exodus.1337x.org/announce
http://fr33dom.h33t.com:3310/announce
===============================================================================================
FOOT NOTE:
If you are happy with this download, it would be nice to here your views or comments that you might have!!
If so, "Thank-Q" in advance, and for downloading this file and for sharing...
===============================================================================================

Related torrents

Torrent NameAddedSizeSeedLeechHealth
1 Year+ - in Movies692.47 MB200
1 Year+ - in Movies702.2 MB01
Verified torrent
1 Year+ - in Movies1.34 GB56
Verified torrent
1 Year+ - in Movies1.7 GB186
Verified torrent
1 Year+ - in Movies1.53 GB62

Comments (0 Comments)




Please login or create a FREE account to post comments

Latest Searches

| Elivia 36 | guzaara | gilmore girls season a year in life | veronica avluv chad white the other way around 480x854 | Shin Gojira 2016 | PLAYBOY SPECIAL EDITION a MAY 2016 NATURAL BEAUTIES pdf zeke23 | m a b band | udemy complete iOS 10 | o g est 1992 | mathematical stat |