Quick Browse
Movies
TV shows
Music
Games
Applications
Anime
Other
Facebook
Advertising

Friends
Torrent Download
Movie4u
1337x.to
Torrent Downloads




Verified torrent One for the Money 2012 RC BD Rip Ac3 Xvid -ANALOG


    Seeders : 89      Leechers : 95
Hash :BF866F891D491DB782DAFD35769D9FA705417AC4
Added :1 Year+ by SAHIBGREWVerified torrent uploader in Movies
Size :1.45 GB
Stream :WATCH ONLINE @ Movie4u


One for the Money 2012 RC BD Rip Ac3 Xvid -ANALOG
Free and Fast Download with Usenet 300GB+ free







Trackers List

Tracker NameLast CheckStatusSeedersLeechers




Torrent File Content (5 files)


One.for.the.Money.2012.RC.BD.Rip.Ac3.Xvid.ANALOG
     O.F.T.M.RC.BDR.ANALOG.avi -
1.44 GB

     O.F.T.M.RC.BDR.ANALOG.nfo -
7.15 KB

     O.F.T.M.RC.BDR.ANALOG.sample.avi -
9.29 MB

     Torrent downloaded from AhaShare.com.txt -
58 bytes

     Torrent downloaded from Demonoid.me.txt -
46 bytes



Description



http://www.imgcrave.com/u/QCDm9.jpg


[quote][color=Green]

Complete name : One.for.the.Money.2012.RC.BD.Rip.Ac3.Xvid.ANALOGO.F.T.M.RC.BDR.ANALOG.avi

http://www.imdb.com/title/tt1598828/



Plot:

Unemployed and newly-divorced Stephanie Plum lands a job at her cousin's bail-bond business, where her first assignment puts her on the trail of a wanted local cop from her romantic past.


Format : AVI
Format/Info : Audio Video Interleave
File size : 1.44 GiB
Duration : 1h 31mn
Overall bit rate : 2 260 Kbps
Movie name : O.F.T.M.RC.BDR.ANALOG
Writing application : VirtualDub build 32842/release
Copyright : ANALOG

Video
ID : 0
Format : MPEG-4 Visual
Format profile : Advanced [email protected]
Format settings, BVOP : 1
Format settings, QPel : No
Format settings, GMC : No warppoints
Format settings, Matrix : Default (H.263)
Muxing mode : Packed bitstream
Codec ID : XVID
Codec ID/Hint : XviD
Duration : 1h 31mn
Bit rate : 1 803 Kbps
Width : 720 pixels
Height : 304 pixels
Display aspect ratio : 2.35:1
Frame rate : 23.976 fps
Color space : YUV
Chroma subsampling : 4:2:0
Bit depth : 8 bits
Scan type : Progressive
Compression mode : Lossy
Bits/(Pixel*Frame) : 0.344
Stream size : 1.15 GiB (80%)
Writing library : XviD 64

Audio
ID : 1
Format : AC-3
Format/Info : Audio Coding 3
Mode extension : CM (complete main)
Codec ID : 2000
Duration : 1h 31mn
Bit rate mode : Constant
Bit rate : 448 Kbps
Channel(s) : 6 channels
Channel positions : Front: L C R, Side: L R, LFE
Sampling rate : 48.0 KHz
Bit depth : 16 bits
Compression mode : Lossy
Stream size : 293 MiB (20%)
Alignment : Aligned on interleaves
Interleave, duration : 42 ms (1.00 video frame)
Interleave, preload duration : 512 ms
Language : English(studio audio DTS mixed to ac3)
Sample : Yes
Source : RC.BD.25 THANX

As humans, we perceive the world in analog. Everything we see and hear is a continuous transmission of information to our senses.
[email protected]
GREATINGS TO ALL THE PLACES I LURK!!

[/color][/quote]


http://i2.lulzimg.com/71f1912a5d.png


http://www.hotimg.com/direct/ce2Zat5.jpg



http://torrent-stats.info/fd35/1b73bb424.png

Related torrents

Torrent NameAddedSizeSeedLeechHealth
1 Year+ - in Movies1.26 GB118
Verified torrent
1 Year+ - in Movies1.67 GB10
1 Bad
1 Year+ - in Movies1.49 GB200187
1 Year+ - in Movies1.37 GB1139
1 Year+ - in Movies1.31 GB05

Comments (0 Comments)




Please login or create a FREE account to post comments

Latest Searches

| Sorceress Lori Beyond Death | city on edge | makayla cox hd | deus ex bonus | the originals s02e13 720p web dl 2ch x265 hevc psa | idm internet download manager 6 05 build 7 final crack | Preacher S01E04 720p HDTV x265 | BTCP Katrina | Whipping And Caning | put it down twista |