Quick Browse
TV shows

Latest Articles

Torrent Download
Free Movies
Torrent Downloads

Verified torrent One for the Money 2012 RC BD Rip Ac3 Xvid -ANALOG

    Seeders : 0      Leechers : 7

Hash :BF866F891D491DB782DAFD35769D9FA705417AC4
Added :1 Year+ by SAHIBGREWVerified torrent uploader in Movies
Size :1.45 GB
Stream :Watch Online Full Movie @ Movie4u
Share :

One for the Money 2012 RC BD Rip Ac3 Xvid -ANALOG
Download Direct And Anonymously

Warning! Do not Download Torrents Without a VPN!
Your IP Address is .   And Location is
Your Internet Provider and Government can track your torrent Activity!  Hide your IP ADDRESS with a VPN!
We Strongly Recommend Using CyberGhost VPN to Anonymize your Torrenting.

Note :

Please Update (Trackers Info) Before Downloading Torrents to See Updated Seeders And Leechers for Batter Download Speed.

Trackers List

Tracker NameLast CheckStatusSeedersLeechers
udp://tracker.coppersurfer.tk:8011 months agosuccess04
http://tracker.trackerfix.com/announce11 months agosuccess00
udp://tracker.ilibr.org:6969/announce11 months agosuccess04
udp://ipv4.tracker.harry.lu:80/announce11 months agosuccess07
udp://9.rarbg.com:2710/announce11 months agosuccess00

Torrent File Content (5 files)

     O.F.T.M.RC.BDR.ANALOG.avi -
1.44 GB

     O.F.T.M.RC.BDR.ANALOG.nfo -
7.15 KB

     O.F.T.M.RC.BDR.ANALOG.sample.avi -
9.29 MB

     Torrent downloaded from AhaShare.com.txt -
58 bytes

     Torrent downloaded from Demonoid.me.txt -
46 bytes




Complete name : One.for.the.Money.2012.RC.BD.Rip.Ac3.Xvid.ANALOGO.F.T.M.RC.BDR.ANALOG.avi



Unemployed and newly-divorced Stephanie Plum lands a job at her cousin's bail-bond business, where her first assignment puts her on the trail of a wanted local cop from her romantic past.

Format : AVI
Format/Info : Audio Video Interleave
File size : 1.44 GiB
Duration : 1h 31mn
Overall bit rate : 2 260 Kbps
Movie name : O.F.T.M.RC.BDR.ANALOG
Writing application : VirtualDub build 32842/release
Copyright : ANALOG

ID : 0
Format : MPEG-4 Visual
Format profile : Advanced [email protected]
Format settings, BVOP : 1
Format settings, QPel : No
Format settings, GMC : No warppoints
Format settings, Matrix : Default (H.263)
Muxing mode : Packed bitstream
Codec ID : XVID
Codec ID/Hint : XviD
Duration : 1h 31mn
Bit rate : 1 803 Kbps
Width : 720 pixels
Height : 304 pixels
Display aspect ratio : 2.35:1
Frame rate : 23.976 fps
Color space : YUV
Chroma subsampling : 4:2:0
Bit depth : 8 bits
Scan type : Progressive
Compression mode : Lossy
Bits/(Pixel*Frame) : 0.344
Stream size : 1.15 GiB (80%)
Writing library : XviD 64

ID : 1
Format : AC-3
Format/Info : Audio Coding 3
Mode extension : CM (complete main)
Codec ID : 2000
Duration : 1h 31mn
Bit rate mode : Constant
Bit rate : 448 Kbps
Channel(s) : 6 channels
Channel positions : Front: L C R, Side: L R, LFE
Sampling rate : 48.0 KHz
Bit depth : 16 bits
Compression mode : Lossy
Stream size : 293 MiB (20%)
Alignment : Aligned on interleaves
Interleave, duration : 42 ms (1.00 video frame)
Interleave, preload duration : 512 ms
Language : English(studio audio DTS mixed to ac3)
Sample : Yes
Source : RC.BD.25 THANX

As humans, we perceive the world in analog. Everything we see and hear is a continuous transmission of information to our senses.
[email protected]





Related torrents

Torrent NameAddedSizeSeedLeechHealth
1 Year+ - in Movies1.26 GB118
Verified torrent
1 Year+ - in Movies1.67 GB10
1 Bad
1 Year+ - in Movies1.49 GB200187
1 Year+ - in Movies1.37 GB1139
1 Year+ - in Movies1.31 GB05

Note :

Feel free to post any comments about this torrent, including links to Subtitle, samples, screenshots, or any other relevant information. Please Dont Download anything from Comments, And Dont Post Links to Streaming Sites like Fmovies, Xmovies8, 123Movies, GoMovies, CMovieshd, Solarmovie, Watchfree, Putlockers, GoStream, m4ufree etc.

Comments (0 Comments)

Please login or create a FREE account to post comments

Latest Searches

| river monsters lake | APAK 129 | Bering Sea Gold S07E05 HDTV x264 FUM ettv | yung pinch when I | teen wolf s04e08 720p hdtv x264 killers glotv | aletta 720p | Black Sails S01E04 720p HDTV x264 KILLERS eztv | Predestination 2014 1080p grym | Private Society Friday Night Fuckfest mp4 | the truth is alexandra burke |