Quick Browse
Movies
TV shows
Music
Games
Applications
Anime
Other
Facebook
Advertising

Friends
Torrent Download
Movie4u
1337x.to
Torrent Downloads




Verified torrent Oosaravelli 2011 Telugu 1CD DVDSCR x264 AAC-MTR


    Seeders : 0      Leechers : 0
Hash :5EB291BB2CD71C22F82550E15016BF52FB935EC8
Added :1 Year+ by jumbotorrentsxVerified torrent uploader in Movies
Size :700.15 MB
Stream :WATCH ONLINE @ Movie4u


Oosaravelli 2011 Telugu 1CD DVDSCR x264 AAC-MTR
Free and Fast Download with Usenet 300GB+ free







Trackers List

Tracker NameLast CheckStatusSeedersLeechers




Torrent File Content (8 files)


Oosaravelli 2011 Telugu 1CD DVDSCR x264 AAC-MTR
    Screenshots
          vlcsnap-2011-10-16-11h04m10s47.png -
386.46 KB

          vlcsnap-2011-10-16-11h04m17s125.png -
369.67 KB

          vlcsnap-2011-10-16-11h04m13s87.png -
300.98 KB

          vlcsnap-2011-10-16-11h04m28s223.png -
215.08 KB

     Oosaravelli 2011 Telugu 1CD DVDSCR x264 AAC-MTR.avi -
698.9 MB

     Oosaravelli 2011 Telugu 1CD DVDSCR x264 AAC-MTR.nfo -
1.16 KB

     Torrent downloaded from Limetorrents.com.txt -
48 bytes

     Torrent downloaded from Demonoid.me.txt -
46 bytes



Description



http://padamhosting.com/out.php/i118604_Oosaravelli.jpg


http://padamhosting.com/out.php/i118608_vlcsnap2011101611h04m10s47.png


http://padamhosting.com/out.php/i118607_vlcsnap2011101611h04m13s87.png


http://padamhosting.com/out.php/i118606_vlcsnap2011101611h04m17s125.png


http://padamhosting.com/out.php/i118605_vlcsnap2011101611h04m28s223.png



[code]
Format : AVI
Format/Info : Audio Video Interleave
Format profile : OpenDML
Overall bit rate : 1 611 Kbps
Writing application : VirtualDubMod 1.5.10.2 (build 2542/release)
Writing library : VirtualDubMod build 2542/release


Video
ID : 0
Format : MPEG-4 Visual
Format profile : [email protected]
Format settings, BVOP : Yes
Format settings, QPel : No
Format settings, GMC : No warppoints
Format settings, Matrix : Default (H.263)
Codec ID : XVID
Codec ID/Hint : XviD
Duration : 1h 59mn
Bit rate : 1 157 Kbps
Width : 704 pixels
Height : 304 pixels
Display aspect ratio : 2.35:1
Frame rate : 25.000 fps
Resolution : 24 bits
Colorimetry : 4:2:0
Scan type : Progressive
Bits/(Pixel*Frame) : 0.216
Stream size : 991 MiB (72%)
Writing library : XviD 1.3.0.dev55

Audio
ID : 1
Format : AC-3
Format/Info : Audio Coding 3
Codec ID : 2000
Duration : 1h 59mn
Bit rate mode : Constant
Bit rate : 448 Kbps
Channel(s) : 6 channels
Channel positions : Front: L C R, Surround: L R, LFE
Sampling rate : 48.0 KHz
Stream size : 384 MiB (28%)
Alignment : Aligned on interleaves
Interleave, duration : 64 ms (1.60 video frames)
Interleave, preload duration : 192 ms
[/code]

Related torrents

Torrent NameAddedSizeSeedLeechHealth
Verified torrent
1 Year+ - in Movies700.15 MB00
1 Year+ - in Movies706.25 MB00
1 Comments
1 Good
Verified torrent
1 Year+ - in Movies709.07 MB105
1 Year+ - in Movies702.46 MB206
1 Comments
1 Year+ - in Movies697.84 MB01

Comments (0 Comments)




Please login or create a FREE account to post comments

Latest Searches

| Dont Break Me Liza Rowe | sibel Can Arabesque | Terry Jacks Seasons In The Sun | INVASION of ENGLAND | natalie portman wallpaper | Murdoch Mysteries S08E11 HDTV x264 2HDettv | See The Light Thomas Gold Remix | double fucked cougar | the ultimate cheese | episode 12 and 3 |