Quick Browse
Movies
TV shows
Music
Games
Applications
Anime
Other
Facebook
Friends
Torrent Download
Movie4u
1337x.to
Torrent Downloads

Verified torrent Operation Endgame [DVD5] [ENG] [AC3] [Hannspree]


    Seeders : 0      Leechers : 0

Trackers List

Tracker NameLast CheckStatusSeedersLeechers




Torrent File Content (13 files)


Operation Endgame
    Operation Endgame [DVD]
          VIDEO_TS/VIDEO_TS.BUP -
12 KB

          VIDEO_TS/VIDEO_TS.IFO -
12 KB

          VIDEO_TS/VIDEO_TS.VOB -
58 KB

          VIDEO_TS/VTS_01_0.BUP -
62 KB

          VIDEO_TS/VTS_01_0.IFO -
62 KB

          VIDEO_TS/VTS_01_0.VOB -
58 KB

          VIDEO_TS/VTS_01_1.VOB -
1023.97 MB

          VIDEO_TS/VTS_01_2.VOB -
118.01 MB

    Operation Endgame [Images]
          Operation Endgame [Cover].jpg -
57.16 KB

          Operation Endgame [Disc].jpg -
79.22 KB

          Operation Endgame [Screens].jpg -
117.02 KB

     Operation Endgame.NFO -
3.75 KB

     Torrent downloaded from Ceasers Palace.txt -
51 bytes



Description



=====================================================================================
[ Another free, high quality, ready to burn DVD I will be adding new torrents on a daily basis - Remember to seed ]
=====================================================================================
MOVIE TITLE: Operation Endgame
LANGUAGE: English
MOVIE SUBS: No
BURN TESTED: Yes
FORMAT: Pal
GENRE: Drama | Action | Comedy
RUNTIME: 87 Minutes
YEAR: 2010
IMDB LINK: http://www.imdb.com/title/tt1268987/
=====================================================================================
MOVIE DESC:

A satirical workplace comedy with a slick action twist, Fouad Mikati's Operation Endgame explores the violence that erupts when the organization charged with protecting America implodes, and the employees turn their guns on each other instead of their enemies. Somewhere beneath Washington, D.C., an intense rivalry is heating up between two opposing teams of government assassins. The hired killers in the organizations take their names from Tarot cards. The Fool (Joe Anderson) is the latest recruit. Reporting for his first day on the job, The Fool is shocked to find that his boss is dead, and the office is on lockdown. To make matters worse, the building has been rigged with explosives, and it's going to blow soon. Now, in order to get out alive, The Fool will have to root out the killer in his midst, and make a quick escape before his co-workers catch him in their crosshairs
=====================================================================================
MOVIE SPECS:

GENERAL:
Complete name : Operation Endgame [DVD5]
Format : MPEG-PS
File size : 1.11 GB
Duration : 87 Minutes
Overall bit rate : 1 978 Kbps

VIDEO:
ID : 224 (0xE0)
Format : MPEG Video
Format version : Version 2
Format profile : [email protected]
Format settings, BVOP : Yes
Format settings, Matrix : Default
Duration : 87 Minutes
Bit rate mode : Variable
Bit rate : 1 746 Kbps
Nominal bit rate : 9 608 Kbps
Width : 720 pixels
Height : 576 pixels
Display aspect ratio : 16:9
Frame rate : 24.000 fps
Standard : PAL
Color space : YUV
Chroma subsampling : 4:2:0
Bit depth : 8 bits
Scan type : Progressive
Scan order : 2:2:2:2:2:2:2:2:2:2:2:3 Pulldown
Bits/(Pixel*Frame) : 0.175
Stream size : 904 MiB (88%)

AUDIO:
ID : 128 (0x80)
Format : AC-3
Format/Info : Audio Coding 3
Mode extension : CM (complete main)
Duration : 87 Minutes
Bit rate mode : Constant
Bit rate : 192 Kbps
Channel(s) : 2 channels
Channel positions : Front: L R
Sampling rate : 48.0 KHz
Stream size : 99.4 MiB (10%)
=====================================================================================
TRACKERS:
http://ceasers-palace.info/announce.php
=====================================================================================
[FOOT NOTE]
If you are happy with this download, it would be nice to hear your views or comments that you might have. Enjoy
=====================================================================================
Screen Shot Of Operation Endgame
=====================================================================================
http://leetpic.com/images/operatione.jpg

=====================================================================================

Related torrents

Torrent NameAddedSizeSeedLeechHealth
Verified torrent
1 Year+ - in Movies1.68 GB42
Verified torrent
1 Year+ - in Movies1.63 GB03
Verified torrent
1 Year+ - in Movies2.14 GB28
Verified torrent
1 Year+ - in Movies869.42 MB55
Verified torrent
1 Year+ - in Movies2 GB02

Comments (0 Comments)




Please login or create a FREE account to post comments

Latest Searches

| Rock On 2 720p bluray | Six S01E01 720p | hmm l | Justin bieber salena gomez | AVA ADDAMS PHOENIX MARIE STRAP ON ANAL LESBIANS 3 | Remy bones | examples excel | Quel fantastico peggior anno della mia vita ita | WWE Total Divas S06E09 HDTV x264 TJ TJET | BIG BUTT SLUT LOLLI MOON |