Quick Browse
TV shows

Latest Articles

Torrent Download
Free Movies
Torrent Downloads

POWDER BLUE (2009) (MPEG-4)(IPONE)(NL SUBS) Lions-Team

    Seeders : 1      Leechers : 0

Hash :BE2761A22DDE35C11A74CE96694FFB4BDCAB5AAD
Added :1 Year+ in Movies
Size :1.21 GB
Stream :Watch Online Full Movie @ Movie4u
Share :

Warning! Do not Download Torrents Without a VPN!
Your IP Address is .   And Location is
Your Internet Provider and Government can track your torrent Activity!  Hide your IP ADDRESS with a VPN!
We Strongly Recommend Using CyberGhost VPN to Anonymize your Torrenting.

Note :

Please Update (Trackers Info) Before Downloading Torrents to See Updated Seeders And Leechers for Batter Download Speed.

Trackers List

Tracker NameLast CheckStatusSeedersLeechers

Torrent File Content (5 files)

POWDER BLUE (2009) (MPEG-4)(IPONE)(NL SUBS) 2Lions-Team
    INFO 2Lions-Team
          logo 2Lions.jpg -
314.99 KB

          Powder Blue (2009) poster.jpg -
24.67 KB

          POWDER BLUE (2009) (MPEG-4)(IPONE)(NL SUBS) 2Lions-Team.txt -
3.5 KB

          Torrents aan geboden door _2lions.ons-forum.nl.txt -
583 bytes

          POWDER BLUE (2009) Retail.mp4 -
1.21 GB


POWDER BLUE (2009) (MPEG-4)(IPONE)(NL SUBS) 2Lions-Team 


Verenigde Staten
108 minuten

geregisseerd door Timothy Linh Bui
met Jessica Biel, Ray Liotta en Forest Whitaker

Een stripper (Jessica Biel), een ex-gevangene (Ray Liotta),
een begrafenisondernemer (Eddy Redmayne) en een priester (Forest Whitaker) met zelfmoordneigingen
komen op kerstavond bij elkaar dankzij een mix van gebeurtenissen.
Deze vier bijzondere mensen delen hun levensgebeurtenissen met elkaar en komen zo dichter tot elkaar.
Ondertussen wordt de begrafenisondernemer verliefd op de stripper en wordt de ex-gevangene geconfronteerd
met zijn oude werkgever.

Angelenos meet on Christmas Eve through chance, tragedy and divine intervention.
Velvet Larry is the sleazy owner of the strip club where Rose Johnny dances.
Qwerty Doolittle is a mortician who falls in love with her.
Randall is the head of a corporate crime organization who tries to convince a former employee
not to seek vengeance on his former co-workers. Charlie is a suicidal ex-priest.
Lexus is a transsexual prostitute who shares an unexpected bond with the priest.


Formaat : DVD5
Bron : Retail Pal
Audio : ENglish
Subs : Dutch (Hardcoded)
Format : MPEG-4
Format profile : Base Media
Codec ID : isom
File size : 1.21 GiB
Duration : 1h 46mn
Overall bit rate : 1 632 Kbps

ID : 1
Format : MPEG-4 Visual
Format profile : [email protected]
Format settings, BVOP : No
Format settings, QPel : No
Format settings, GMC : No warppoints
Format settings, Matrix : Default (H.263)
Codec ID : 20
Duration : 1h 46mn
Bit rate mode : Variable
Bit rate : 1 499 Kbps
Width : 720 pixels
Height : 406 pixels
Display aspect ratio : 16/9
Frame rate mode : Constant
Frame rate : 25.000 fps
Resolution : 24 bits
Colorimetry : 4:2:0
Scan type : Progressive
Bits/(Pixel*Frame) : 0.205
Stream size : 1.11 GiB (92%)
Writing library : Lavc51.40.4

ID : 2
Format : AAC
Format/Info : Advanced Audio Codec
Format version : Version 4
Format profile : LC
Format settings, SBR : No
Codec ID : 40
Duration : 1h 46mn
Bit rate mode : Variable
Bit rate : 128 Kbps
Channel(s) : 2 channels
Channel positions : L R
Sampling rate : 48.0 KHz
Resolution : 16 bits
Stream size : 97.2 MiB (8%)[/code]



Brought to you by

2Lions Team


2Lions-Team for all your Dutch MOVIES and more


DON T HIT AND RUN Niet gelijk afhaken als de film binnen is blijf seeden.

Related torrents

Torrent NameAddedSizeSeedLeechHealth
1 Year+ - in Movies1.2 GB51
1 Year+ - in Movies1.13 GB13
1 Year+ - in Movies1.09 GB2215
1 Year+ - in Movies1.11 GB2333
1 Year+ - in Movies1.08 GB517

Note :

Feel free to post any comments about this torrent, including links to Subtitle, samples, screenshots, or any other relevant information. Please Dont Download anything from Comments, And Dont Post Links to Streaming Sites like Fmovies, Xmovies8, 123Movies, GoMovies, CMovieshd, Solarmovie, Watchfree, Putlockers, GoStream, m4ufree etc.

Comments (0 Comments)

Please login or create a FREE account to post comments

Latest Searches

| l ennui 1998 mkv | insect warfare world extermination | grand final vfl | spocks beard brief | something I like | The Reavers | sanctuary gareth emery | speaker knockerz freak | The Student 2017 evo | Top 40 music 14 |