Quick Browse
Movies
TV shows
Music
Games
Applications
Anime
Other
Facebook
Friends
Torrent Download
Free Movies
1337x.to
Torrent Downloads

POWDER BLUE (2009) (MPEG-4)(IPONE)(NL SUBS) Lions-Team


    Seeders : 1      Leechers : 0
Hash :BE2761A22DDE35C11A74CE96694FFB4BDCAB5AAD
Added :1 Year+ in Movies
Size :1.21 GB
Stream :WATCH ONLINE @ Movie4u


POWDER BLUE (2009) (MPEG-4)(IPONE)(NL SUBS) Lions-Team
Anonymous and Direct Download 300GB+ free








Trackers List

Tracker NameLast CheckStatusSeedersLeechers




Torrent File Content (5 files)


POWDER BLUE (2009) (MPEG-4)(IPONE)(NL SUBS) 2Lions-Team
    INFO 2Lions-Team
          logo 2Lions.jpg -
314.99 KB

          Powder Blue (2009) poster.jpg -
24.67 KB

          POWDER BLUE (2009) (MPEG-4)(IPONE)(NL SUBS) 2Lions-Team.txt -
3.5 KB

          Torrents aan geboden door _2lions.ons-forum.nl.txt -
583 bytes

    MOVIE
          POWDER BLUE (2009) Retail.mp4 -
1.21 GB



Description



POWDER BLUE (2009) (MPEG-4)(IPONE)(NL SUBS) 2Lions-Team 

http://img412.imageshack.us/img412/9140/powderblue2009poster.jpg


Verenigde Staten
Drama
108 minuten

geregisseerd door Timothy Linh Bui
met Jessica Biel, Ray Liotta en Forest Whitaker

Dutch:
Een stripper (Jessica Biel), een ex-gevangene (Ray Liotta),
een begrafenisondernemer (Eddy Redmayne) en een priester (Forest Whitaker) met zelfmoordneigingen
komen op kerstavond bij elkaar dankzij een mix van gebeurtenissen.
Deze vier bijzondere mensen delen hun levensgebeurtenissen met elkaar en komen zo dichter tot elkaar.
Ondertussen wordt de begrafenisondernemer verliefd op de stripper en wordt de ex-gevangene geconfronteerd
met zijn oude werkgever.



English:
Angelenos meet on Christmas Eve through chance, tragedy and divine intervention.
Velvet Larry is the sleazy owner of the strip club where Rose Johnny dances.
Qwerty Doolittle is a mortician who falls in love with her.
Randall is the head of a corporate crime organization who tries to convince a former employee
not to seek vengeance on his former co-workers. Charlie is a suicidal ex-priest.
Lexus is a transsexual prostitute who shares an unexpected bond with the priest.

Postinformatie:

Formaat : DVD5
Bron : Retail Pal
Audio : ENglish
Subs : Dutch (Hardcoded)
[code]
Format : MPEG-4
Format profile : Base Media
Codec ID : isom
File size : 1.21 GiB
Duration : 1h 46mn
Overall bit rate : 1 632 Kbps


Video
ID : 1
Format : MPEG-4 Visual
Format profile : [email protected]
Format settings, BVOP : No
Format settings, QPel : No
Format settings, GMC : No warppoints
Format settings, Matrix : Default (H.263)
Codec ID : 20
Duration : 1h 46mn
Bit rate mode : Variable
Bit rate : 1 499 Kbps
Width : 720 pixels
Height : 406 pixels
Display aspect ratio : 16/9
Frame rate mode : Constant
Frame rate : 25.000 fps
Resolution : 24 bits
Colorimetry : 4:2:0
Scan type : Progressive
Bits/(Pixel*Frame) : 0.205
Stream size : 1.11 GiB (92%)
Writing library : Lavc51.40.4


Audio
ID : 2
Format : AAC
Format/Info : Advanced Audio Codec
Format version : Version 4
Format profile : LC
Format settings, SBR : No
Codec ID : 40
Duration : 1h 46mn
Bit rate mode : Variable
Bit rate : 128 Kbps
Channel(s) : 2 channels
Channel positions : L R
Sampling rate : 48.0 KHz
Resolution : 16 bits
Stream size : 97.2 MiB (8%)[/code]


http://www.moviemeter.nl/film/46350
http://www.imdb.com/title/tt1032819


*****************************************


Brought to you by
Pioen
http://i226.photobucket.com/albums/dd118/FloraKing/Avator/bloemenmeisje.gif

2Lions Team



http://i845.photobucket.com/albums/ab16/hortencia9/_96637_four_weddings_and_a_funeral_.jpg



2Lions-Team for all your Dutch MOVIES and more

*****************************************

DON T HIT AND RUN Niet gelijk afhaken als de film binnen is blijf seeden.

Related torrents

Torrent NameAddedSizeSeedLeechHealth
1 Year+ - in Movies1.2 GB51
1 Year+ - in Movies1.13 GB13
1 Year+ - in Movies1.09 GB2215
1 Year+ - in Movies1.11 GB2333
1 Year+ - in Movies1.08 GB517

Comments (0 Comments)




Please login or create a FREE account to post comments

Latest Searches

| Ted 2 2015 UNRATED WEB DL XviD MP3 RARBG | game album mp3 | vampire diaries s06e11 HDTV XviD FUM ettv | lord hurons | Bobby Womack Very Best of | Ella BrokeModel | Cum Spewing Holes 720P | Matures Tres | Augusta Gone 2006 | R O S mac miller |