Quick Browse
Movies
TV shows
Music
Games
Applications
Anime
Other
Facebook
Friends
Torrent Download
Free Movies
1337x.to
Torrent Downloads

Verified torrent PRANCHIYETTAN AND THE SAINTS NTSC MCCE DOLBY DIGITAL Striker WBZ


    Seeders : 0      Leechers : 1
Hash :25BD8C1C28BFEBB1E66701443E46A42FF9418077
Added :1 Year+ by striker123Verified torrent uploader in Movies
Size :4.34 GB
Stream :Watch Full Movies Online @ Movie4u
Share :


PRANCHIYETTAN AND THE SAINTS NTSC MCCE DOLBY DIGITAL Striker WBZ
Anonymous and Direct Download 300GB+ free







Warning! Do not Download Torrents Without a VPN!
Your IP Address is .   And Location is
Your Internet Provider and Government can track your torrent Activity!  Hide your IP ADDRESS with a VPN!
We Strongly Recommend Using OneVPN’s Torrent VPN to Anonymize your Torrenting. It's Very Cheap!

Note :

Please Update (Trackers Info) Before Downloading Torrents to See Updated Seeders And Leechers for Batter Download Speed.

Trackers List

Tracker NameLast CheckStatusSeedersLeechers




Torrent File Content (22 files)


PRANCHIYETTAN AND THE SAINTS NTSC MCCE DOLBY DIGITAL Striker WBZ
     A WarezBoyz Release....txt -
0 bytes

    Screens
          1.jpg -
24.79 KB

          10.jpg -
38.26 KB

          11.jpg -
48.26 KB

          12.jpg -
50.13 KB

          2.jpg -
65.8 KB

          3.jpg -
56.91 KB

          4.jpg -
84.97 KB

          5.jpg -
46.01 KB

          6.jpg -
51.6 KB

          7.jpg -
44.39 KB

          8.jpg -
54.63 KB

          9.jpg -
55.39 KB

    VIDEO_TS
          VIDEO_TS.BUP -
6 KB

          VIDEO_TS.IFO -
6 KB

          VTS_01_0.BUP -
98 KB

          VTS_01_0.IFO -
98 KB

          VTS_01_1.VOB -
1024 MB

          VTS_01_2.VOB -
1024 MB

          VTS_01_3.VOB -
1024 MB

          VTS_01_4.VOB -
1024 MB

          VTS_01_5.VOB -
346.98 MB



Description



http://www.moviepostershop.com/pranchiyettan-and-the-saint-movie-poster-1020558379.jpg


[code]
Video
ID : 224 (0xE0)
Format : MPEG Video
Format version : Version 2
Format profile : [email protected]
Format settings, BVOP : Yes
Format settings, Matrix : Default
Format settings, GOP : M=1, N=12
Duration : 30mn 41s
Bit rate mode : Variable
Bit rate : 4 123 Kbps
Width : 720 pixels
Height : 480 pixels
Display aspect ratio : 4:3
Frame rate : 29.970 fps
Standard : NTSC
Color space : YUV
Chroma subsampling : 4:2:0
Bit depth : 8 bits
Scan type : Progressive
Scan order : Bottom Field First
Compression mode : Lossy
Bits/(Pixel*Frame) : 0.398
Stream size : 905 MiB (88%)
Writing library : TMPGEnc 2.524.63.181

Audio
ID : 189 (0xBD)-128 (0x80)
Format : AC-3
Format/Info : Audio Coding 3
Mode extension : CM (complete main)
Muxing mode : DVD-Video
Duration : 30mn 41s
Bit rate mode : Constant
Bit rate : 448 Kbps
Channel(s) : 6 channels
Channel positions : Front: L C R, Side: L R, LFE
Sampling rate : 48.0 KHz
Bit depth : 16 bits
Compression mode : Lossy
Delay relative to video : 19ms
Stream size : 98.3 MiB (10%)

Text
ID : 189 (0xBD)-32 (0x20)
Format : RLE
Format/Info : Run-length encoding
Muxing mode : DVD-Video
[/code]

http://pic.phyrefile.com/s/sh/shahaz/2011/04/12/1_001.jpg

http://pic.phyrefile.com/s/sh/shahaz/2011/04/12/2_001.jpg

http://pic.phyrefile.com/s/sh/shahaz/2011/04/12/3.jpg

http://pic.phyrefile.com/s/sh/shahaz/2011/04/12/4.jpg

http://pic.phyrefile.com/s/sh/shahaz/2011/04/12/5.jpg

http://pic.phyrefile.com/s/sh/shahaz/2011/04/12/6.jpg

http://pic.phyrefile.com/s/sh/shahaz/2011/04/12/7.jpg

http://pic.phyrefile.com/s/sh/shahaz/2011/04/12/8.jpg

http://pic.phyrefile.com/s/sh/shahaz/2011/04/12/9.jpg

http://pic.phyrefile.com/s/sh/shahaz/2011/04/12/10.jpg

http://pic.phyrefile.com/s/sh/shahaz/2011/04/12/11_001.jpg

http://pic.phyrefile.com/s/sh/shahaz/2011/04/12/12.jpg


Related torrents

Torrent NameAddedSizeSeedLeechHealth
1 Year+ - in Other3.61 GB00
1 Year+ - in Other4.27 GB11
1 Year+ - in Other4.28 GB10
10 months ago - in Other2.29 GB10
1 Year+ - in Movies5.34 GB00

Comments (0 Comments)




Please login or create a FREE account to post comments

Latest Searches

| 2DHentai | Into the Badlands S02E09 720p HDTV x264 AVSeztv | BBC Gang Bang 2 | 1080p CumFiesta Kacey Quinn | Elena Disco Romancing 2012 | law and order SVU s16e10 | hunter addie juniper pussy passenger new 14 september 2015 | latest raw | Prime | 1080p CumFiesta Kymberlee Anne |